v

您的位置:VeryCD音乐华语音乐

音乐资源事务区


伽菲珈而
姜苏 -《HIFI年代1 - 怀念战友》[APE]

  • 状态: 精华资源
  • 摘要:
    发行时间2002年
    地区大陆
    语言普通话
  • 时间: 2005/07/04 06:54:55 发布 | 2005/07/04 06:54:55 更新
  • 分类: 音乐  华语音乐 

oxfiend

精华资源: 1

全部资源: 2

相关: 分享到新浪微博   转播到腾讯微博   分享到开心网   分享到人人   分享到QQ空间   订阅本资源RSS更新   美味书签  subtitle
该内容尚未提供权利证明,无法提供下载。
专辑中文名HIFI年代1 - 怀念战友
资源格式APE
发行时间2002年
地区大陆
语言普通话
简介

IPB Image
http://bbs.esong.cn/UploadFile/2005-4/200542221440640.jpg

专辑介绍:

伽菲珈而,广州柏菲音乐制作公司艺人,极具潜力的新星.一个只不过是20岁左右的小女生,
没有看过电影<<冰山上的来客>>,却能把“怀念战友”演绎得如此的激昂震撼,
保留经典旋律的同时赋予了时代感,这些原本粗犷的军歌由她唱来却是别有一番韵味.
她那清丽温婉的嗓音把歌曲演绎得丝丝入扣,真情流露.这对一个二十来岁的新人来说由为难得.
当然这当中除了伽菲珈而本人的天赋与唱功外,还要归功于柏菲公司尽善尽美的录音制作。

光盘封面:
http://bbs.esong.cn/UploadFile/2005-4/200542221447962.jpg

看到这里发只有HIFI年代2-4的APE版本,便有心给补上HIFI年代1,后来终于找到了,立马放出来,和大家共同分享,这是我的第一VC帖。

另附CUE文件清单如下:
PERFORMER "柏菲"
TITLE "HIFi年代 - 怀念战友"
FILE "伽菲珈而&姜苏.-.[HIFI年代1 - 怀念战友].专辑.(ape).ape" WAVE
TRACK 01 AUDIO
TITLE "红星照我去战斗"
PERFORMER "柏菲"
INDEX 01 00:00:00
TRACK 02 AUDIO
TITLE "怀念战友"
PERFORMER "柏菲"
INDEX 00 03:58:19
INDEX 01 04:00:19
TRACK 03 AUDIO
TITLE "大海啊故乡"
PERFORMER "柏菲"
INDEX 00 09:36:09
INDEX 01 09:38:10
TRACK 04 AUDIO
TITLE "映山红"
PERFORMER "柏菲"
INDEX 00 13:34:00
INDEX 01 13:36:00
TRACK 05 AUDIO
TITLE "游击队之歌"
PERFORMER "柏菲"
INDEX 00 18:18:05
INDEX 01 18:20:05
TRACK 06 AUDIO
TITLE "雁南飞"
PERFORMER "柏菲"
INDEX 00 21:26:46
INDEX 01 21:28:48
TRACK 07 AUDIO
TITLE "我爱这蓝色的海洋"
PERFORMER "柏菲"
INDEX 00 25:09:64
INDEX 01 25:11:64
TRACK 08 AUDIO
TITLE "驼铃"
PERFORMER "柏菲"
INDEX 00 29:15:23
INDEX 01 29:17:23
TRACK 09 AUDIO
TITLE "再见吧妈妈"
PERFORMER "柏菲"
INDEX 00 33:13:45
INDEX 01 33:15:47
TRACK 10 AUDIO
TITLE "打靶归来"
PERFORMER "柏菲"
INDEX 00 37:25:36
INDEX 01 37:27:36
TRACK 11 AUDIO
TITLE "军港之夜"
PERFORMER "柏菲"
INDEX 00 40:32:38
INDEX 01 40:34:39
TRACK 12 AUDIO
TITLE "友谊天长地久"
PERFORMER "柏菲"
INDEX 00 44:27:49
INDEX 01 44:29:49



专辑曲目

01. 红星照我去战斗 [0:04:00.25]
02. 怀念战友 [0:05:37.88]
03. 大海啊,故乡 [0:03:57.86]
04. 映山红 [0:04:44.06]
05. 游击队之歌 [0:03:08.57]
06. 雁南飞 [0:03:43.21]
07. 我爱这蓝色的海洋 [0:04:05.45]
08. 驼铃 [0:03:58.32]
09. 再见吧,妈妈 [0:04:11.85]
10. 打靶归来 [0:03:07.04]
11. 军港之夜 [0:03:55.13]
12. 友谊地久天长 [0:04:19.41]

正在读取……

这里是其它用户补充的资源(我也要补充):

暂无补充资源
正在加载,请稍等...

点击查看所有41网友评论

 

(?) [公告]留口水、评论相关规则 | [活动]每日签到 轻松领取电驴经验

    小贴士:
  1. 类似“顶”、“沙发”之类没有营养的文字,对勤劳贡献的楼主来说是令人沮丧的反馈信息。
  2. 提问之前请再仔细看一遍楼主的说明,或许是您遗漏了。
  3. 勿催片。请相信驴友们对分享是富有激情的,如果确有更新版本,您一定能搜索到。
  4. 请勿到处挖坑绊人、招贴广告。既占空间让人厌烦,又没人会搭理,于人于己都无利。
  5. 如果您发现自己的评论不见了,请参考以上4条。