v

您的位置:VeryCD音乐古典音乐

音乐资源事务区


V.A. -《极致:维瓦尔第选集》(Ultimate Vivaldi) DECCA极致系列(5CD Box-set)[FLAC]

  • 状态: 精华资源
  • 摘要:
    发行时间2007年
  • 时间: 2008/11/11 14:13:45 发布 | 2008/11/15 10:05:39 更新
  • 分类: 音乐  古典音乐 

Leonson

精华资源: 78

全部资源: 78

相关: 分享到新浪微博   转播到腾讯微博   分享到开心网   分享到人人   分享到QQ空间   订阅本资源RSS更新   美味书签  subtitle
该内容尚未提供权利证明,无法提供下载。
专辑英文名Ultimate Vivaldi
专辑中文名极致:维瓦尔第选集
艺术家V.A.
资源格式FLAC
版本 DECCA极致系列(5CD Box-set)
发行时间2007年
地区英国
简介

IPB Image

盒装名称:Ultimate Vivaldi, the essential masterpieces (5CD)
唱片公司:Decca
发行编号:475 8536 DB5
录音制式:DDD/ADD
专辑类型:Classical
CD编号:475 8537-41
资源出处:Leonson私人CD原版原抓

专辑介绍

关于DECCA的《Ultimate》极致系列

DECCA 公司出版的《Ultimate》极致系列包括多套5CD一组的主题选集,着重地介绍了各个时代的大师们最有影响力、最广为流传的古典音乐作品,其中包括贝多芬、巴赫、肖邦、柴可夫斯基、莫扎特、舒伯特等的必听之作。此外,该系列还以不同体裁作为类别划分,加入了古典小提琴、大提琴、钢琴、钢琴协奏曲、休闲古典、巴洛克、歌剧等主题选集。虽然这个系列中某些选曲的录音年份有些久远,但演绎者中不乏宗师级的人物,故欣赏价值也是颇高的。全系列由环球公司下属的德国 EDC压片生产,品质优良,而封面设计则简约而不失典雅。该系列比较适合初涉古典音乐的朋友欣赏、收藏,通过这套入门级的CD能对古典音乐有一个基本的、初步的认知和了解。而已是古典音乐爱好者的乐友,或许也能从中找到一些自己可能还没有听过的演绎版本。

如需要检索该系列各选集的下载地址,请参看【DECCA《极致》系列的下载地址列表】,地址如下:
http://www.VeryCD.com/groups/@g2121418/705001.topic


安东尼奥·维瓦尔第(Antonio Vivaldi)

IPB Image

1675-1741,巴洛克时期意大利着名的作曲家、小提琴家。他出生在威尼斯一个普通乐师的家庭里。维瓦尔第的父亲是威尼斯圣马可教堂乐队的小提琴手。幼年的维瓦尔第成长在威尼斯浓郁的音乐文化氛围里,显示出非凡的音乐才能,到十岁时,他已经能代替父亲在教堂里演奏了。十八世纪初的一本威尼斯旅游手册中记载:“……最佳小提琴手巴蒂斯特·维瓦尔第和他的儿子安东尼奥·维瓦尔第”的词句。
维瓦尔第十五岁受戒,1703年领受神职,但当时这并不表示他已当神父,只是为了稍微提高一下自己的社会地位。当他18岁时接受更高一级的圣职(副助祭)时,维瓦尔第才力下心当神职人员。他在附近的两个教区接受了神职教育(神学)并毕业。25岁时,维瓦尔第成为神父。由于他生有一头红发,人们都称他为“红发神父”。接着他就当上了S. Maria della Pietà教堂的神甫,并且在教堂属下的女童音乐学院中当小提琴教师。在维瓦尔第的悉心指导下,孤儿院乐队和唱诗班的水平蒸蒸日上,他本人作为一个作曲家和小提琴演奏家的声望也越过了阿尔卑斯山,一些爱好音乐的贵族千里迢迢来到威尼斯,只是为了聆听他演奏小提琴。在维瓦尔第任教近四十年的时间里,大量音乐作品源源不断的从他的鹅毛笔端流淌出来,最出色的还是他以富于民间色彩和生活气息着称的器乐作品。他一生写了近500首协奏曲和73首奏鸣曲,此外,还作有歌剧十余部,以及康塔塔、经文歌等。其中相当一部分在他在世时就出版了,包括他的最着名的作品小提琴协奏曲《四季》。
维瓦尔第在1704年开始作曲,第一部作品出版于1705年,是一组12首叁重奏奏鸣曲。1713年完成了第一部歌剧《奥托尼在维拉》(Ottone in Villa)。从此他把自己看作歌剧作家,尽管很多人仍然认为他是小提琴家,他一生创作了近50部歌剧,其中存世的仅有21部,而且不少只是片段。而他创作最多的还是协奏曲,人们公认他对协奏曲的发展做出了巨大的贡献,他一生写了数百部这类作品,大部分是小提琴协奏曲。最着名的是Op.8,其中前四首即众所周知的《四季》,常被单独演奏;第五首《海上风暴》、第六首《愉悦》及第十首《狩猎》也都非常有意境,充满了巴洛克的一贯风格。意大利文艺复兴以来积淀的深厚的人文主义传统,使维瓦尔第的作品洋溢着清纯的气息,如同亚平宁半岛的阳光,给人以温暖和快乐。由于有一支听命于他的乐队,维瓦尔第大胆地进行试验和创新,他的协奏曲几乎囊括了当时所有的主流乐器的组合。他的天才创作大大丰富了协奏曲的表现手法,其小提琴高把位的运用也为日后的炫技技术的发展作了铺垫。巴赫对他钦佩有加,早在魏玛时期就改编过他的几部协奏曲。维瓦尔第清纯甜美的意大利风格对巴赫音乐风格的形成有不小的影响。
维瓦尔第1741年7月28日逝世于维也纳,这时候他的声名已去,默默无闻。此后的一百多年,他的名字也一直没有被引起更多的注意。直到20世纪,随着人们对巴洛克音乐的重新认识,他那些卓越的曲作才再一次受到关注,他本人也被评价为与巴赫、亨德尔同样重要的巴洛克早期作曲家。他的音乐天才启迪了后来的巴洛克大音乐家,尤其是他丰富的作品和新颖的、科学的歌剧创作方法,刺激了现代意大利作曲家的好奇心。由于意大利从文艺复兴以来积淀了深厚的人文主义传统,因此维瓦尔第的作品里并没有太多的神迹,而是经常洋溢着清纯的气息,就像亚平宁半岛的阳光一样,给人以温暖和快乐。远在德国的巴赫对他也钦佩有加,早在魏玛时期巴赫就曾改编过他的几部协奏曲。维瓦尔第青纯甜美的意大利风格对巴赫音乐风格的形成有不小的影响,即使是在巴赫后来的《勃兰登堡协奏曲》里,也有维瓦尔第的影子。十八世纪中叶,欧洲音乐正经历着一次巨大的变革,巴洛克时代复杂费解的复调音乐正逐渐被单纯自然的主调音乐所取代,巴洛克晚期的叁位大师也遇到了前所未有的挑战。亨德尔顺应了这种变化,依然还是音乐生活的中心人物;而维瓦尔第(也包括巴赫)没能适应这种变化,听众对他的音乐失去了兴趣。1740年,维瓦尔第前往维也纳,投奔早年赏识他的查理六世皇帝。可几个月皇帝死去,失去依靠的维瓦尔第穷困潦倒,一病不起,1741年终于客死在维也纳。他死去的当天就被草草埋葬在圣查尔斯教堂贫民公墓,与他同时埋葬的人中还有被处决的罪犯。几十年后公墓废弃,后人再也无法找到他的遗骨。就这样,维瓦尔第清风一样的走了,留下的只有清风一般的音乐。
二十世纪,人们开始重新认识巴洛克音乐。当在复兴巴赫的运动中发现维瓦尔第对他耐人寻味的影响时,音乐界开始关注这位大师,他的音乐魅力也越来越多的被揭示出来。1978年在他诞辰300周年之际,一块纪念铭牌在公墓旧址——维也纳理工大学揭幕,表达了人们对他的怀念与崇敬。发光的未必是金子,而真金即使蒙尘多年,也依然是闪闪发光的。

作品简介:大提琴协奏曲
在那个时代维瓦尔第是被当作最卓越的小提琴演奏家的,连威尼斯的导游手册上都写着本城最卓越的小提琴手——维瓦尔第。但他在作曲方面的极高成就是体现在他为多种乐器所做的协奏曲,包括小提琴、低音管、长笛……当然还有大提琴。据考,维瓦尔第在1720年代大约创作了24首大提琴协奏曲,这的确不算多,乐评人Michael Talbot因此戏言维瓦尔第与大提琴恐怕只能算是“点头之交”(a nodding acquintance with cello playing)。这一期间,维瓦尔第曾游历欧洲,另外,他在1738年重返教职时还曾为一位名叫特雷莎的大提琴手写过两首协奏曲,不过均已散佚,仅存片段。大提琴协奏曲的版本不太多见。这里收录的是维瓦尔第5首大提琴协奏曲,每首都是严格按照传统巴洛克协奏曲的形式写成,而且结构精致、不落俗套,具有完美和谐的巴洛克风韵,让人初听就觉得舒心悦耳。
维瓦尔第的协奏曲有很大的包容性,这除了反映在曲式上,音乐主题、动机、样态的变化方面之外,还表现在对和声及复调以及发现声音织体可能性的探索成果方面,由此,巴赫得以对协奏曲继续完善,但很难说巴赫的音乐与之相比有脱胎换骨之精进,可能,对维瓦尔第音乐价值的重估还远没有完成。

(资料来源:百度百科 | 感谢原创资料提供人)


特别说明:

1、本人所上传的所有资源仅供试听之用。有需要的朋友请购买正版CD;
2、“专辑曲目”里ADD/DDD后面的年份均为录音年份。中文曲名仅供参考,如有谬误请予指正;
3、由于带宽限制,请大家在下载时给予充足的耐性。对于多碟套装资源,视分流情况,每天或隔天更新一张CD,直至更新完毕;
4、如有乐友转发此帖至其它网站或论坛,请自觉注明原出处为www.VeryCD.com,并给出ED2K链接。
免拆播放利人利己
部分朋友下载完资源后,往往会将其解压以便播放。倒不是说这些人都没有共享精神,但受硬盘空间的限制,解压后尤其是较大的压缩包常常不得不删除或转移了。从而在一定程度上影响了资源的分流分享。也辜负了发布者将文件打包强制保源完整性的苦心。但实际上大家完全可以不解压直接播放压缩包音乐的。这样一来就能不拆包、不删除、不转移,既节约了空间,又不影响使用,还可以更好地保持完整源的数目以便分享给别人。这种利人利己的好事,何乐而不为呢?
方法1:Winmount可以将常用压缩格式ZIP/RAR等直接虚拟为光驱,轻松搞定压缩包,不需解压,直接使用压缩包中的文件。中文免费软件。在使用上比方法2灵活快捷,几乎感觉不到延迟,且用户如同操作自己的磁盘上其他文件一样轻松。推荐使用此方法。普通用户建议使用其官方绿色版Mini WinMount V0.4。Daemon Tools大家应该很熟悉吧?MiniWinMount使用上也就类似Daemon Tools那样把压缩包甚至是文件夹作为镜像载入,卸载,超级简单的。
方法2:Footbar2000可以直接播放压缩包内的文件。方法是在菜单选“文件”-“添加文件”,指向该压缩包;或者直接把压缩包拖进FB2000播放窗口。不过这样需要较大的内存占用。低配置的机器会比较吃力。


引用
LOG文件


CD1.............................CD1

Exact Audio Copy V0.99 prebeta 4 from 23. January 2008

EAC 抓取日志文件从30. 十月 2008, 15:57

Accardo - I Solisti di Napoli / Ultimate Vivaldi CD1

使用驱动器 :PIONEER DVD-RW DVR-112 Adapter: 3 ID: 0

读取模式 : 保护
使用精确流 : 是
废除音频缓冲 : 是
使用 C2 指针 : 否

读取偏移校正 : 48
读取 Lead-In 和 Lead-Out : 是
用静音填充抓取中丢失偏移的采样 : 是
去除首尾静音块 : 否
在 CRC 计算中使用了空样本 : 是
已用接口 : Win NT 及 2000 本地 Win32 接口

所用输出格式 : 用户定义的编码器
已选比特率 : 1024 kBit/s
质量 : 高
添加 ID3 标签 : 否
命令行压缩器 : C:\Program Files\Exact Audio Copy\FLAC\FLAC.EXE
附加命令行参数 : -6 -V -T "ARTIST=%a" -T "TITLE=%t" -T "ALBUM=%g" -T "DATE=%y" -T "TRACKNUMBER=%n" -T "GENRE=%m" -T "COMMENT=%e" %s -o %d


被抓轨 CD 的 TOC

音轨 | 开始 | 长度 | 起始扇区 | 结尾扇区
--------------------------------------------------
1 | 0:00.32 | 3:49.38 | 32 | 17244
2 | 3:49.70 | 2:39.00 | 17245 | 29169
3 | 6:28.70 | 4:30.37 | 29170 | 49456
4 | 10:59.32 | 1:06.40 | 49457 | 54446
5 | 12:05.72 | 4:21.35 | 54447 | 74056
6 | 16:27.32 | 2:22.38 | 74057 | 84744
7 | 18:49.70 | 2:51.37 | 84745 | 97606
8 | 21:41.32 | 5:34.38 | 97607 | 122694
9 | 27:15.70 | 2:45.37 | 122695 | 135106
10 | 30:01.32 | 3:38.00 | 135107 | 151456
11 | 33:39.32 | 3:13.00 | 151457 | 165931
12 | 36:52.32 | 2:25.50 | 165932 | 176856
13 | 39:18.07 | 3:06.25 | 176857 | 190831
14 | 42:24.32 | 4:14.00 | 190832 | 209881
15 | 46:38.32 | 1:13.00 | 209882 | 215356
16 | 47:51.32 | 5:06.00 | 215357 | 238306
17 | 52:57.32 | 5:25.00 | 238307 | 262681
18 | 58:22.32 | 2:25.00 | 262682 | 273556
19 | 60:47.32 | 3:13.00 | 273557 | 288031


范围状态及错误

已选择范围

文件名 F:\Emule\New Release\Ultimate Vivaldi\Accardo - I Solisti di Napoli - Ultimate Vivaldi CD1.wav

峰值电平 93.0 %
范围质量 100.0 %
复制 CRC FBB8C2EF
复制成功

没有错误发生


AccurateRip 概要

音轨 1 已正确抓取 (确认 2) [0915683A]
音轨 2 已正确抓取 (确认 2) [764FABBC]
音轨 3 已正确抓取 (确认 2) [65D6D236]
音轨 4 已正确抓取 (确认 2) [7A1C659C]
音轨 5 已正确抓取 (确认 2) [09F6C4D8]
音轨 6 已正确抓取 (确认 2) [EFC1408A]
音轨 7 已正确抓取 (确认 2) [E066301F]
音轨 8 已正确抓取 (确认 2) [F2EF271E]
音轨 9 已正确抓取 (确认 2) [526FCC64]
音轨 10 已正确抓取 (确认 2) [503DEACD]
音轨 11 已正确抓取 (确认 2) [0A09D2D4]
音轨 12 已正确抓取 (确认 2) [3B5D8903]
音轨 13 已正确抓取 (确认 2) [D06D2513]
音轨 14 已正确抓取 (确认 2) [49B8242D]
音轨 15 已正确抓取 (确认 2) [67E298BC]
音轨 16 已正确抓取 (确认 2) [8AEE6762]
音轨 17 已正确抓取 (确认 2) [5364E3BA]
音轨 18 已正确抓取 (确认 2) [50DF2F0A]
音轨 19 已正确抓取 (确认 2) [8AD7D317]

所有音轨已被精确抓取

状态报告结尾

CD2.............................CD2

Exact Audio Copy V0.99 prebeta 4 from 23. January 2008

EAC 抓取日志文件从30. 十月 2008, 17:01

Academy of St Martin - Marriner / Ultimate Vivaldi CD2

使用驱动器 :PIONEER DVD-RW DVR-112 Adapter: 3 ID: 0

读取模式 : 保护
使用精确流 : 是
废除音频缓冲 : 是
使用 C2 指针 : 否

读取偏移校正 : 48
读取 Lead-In 和 Lead-Out : 是
用静音填充抓取中丢失偏移的采样 : 是
去除首尾静音块 : 否
在 CRC 计算中使用了空样本 : 是
已用接口 : Win NT 及 2000 本地 Win32 接口

所用输出格式 : 用户定义的编码器
已选比特率 : 1024 kBit/s
质量 : 高
添加 ID3 标签 : 否
命令行压缩器 : C:\Program Files\Exact Audio Copy\FLAC\FLAC.EXE
附加命令行参数 : -6 -V -T "ARTIST=%a" -T "TITLE=%t" -T "ALBUM=%g" -T "DATE=%y" -T "TRACKNUMBER=%n" -T "GENRE=%m" -T "COMMENT=%e" %s -o %d


被抓轨 CD 的 TOC

音轨 | 开始 | 长度 | 起始扇区 | 结尾扇区
--------------------------------------------------
1 | 0:00.33 | 7:46.37 | 33 | 35019
2 | 7:46.70 | 11:43.43 | 35020 | 87787
3 | 19:30.38 | 10:28.10 | 87788 | 134897
4 | 29:58.48 | 9:03.07 | 134898 | 175629
5 | 39:01.55 | 10:52.30 | 175630 | 224559
6 | 49:54.10 | 11:42.13 | 224560 | 277222


范围状态及错误

已选择范围

文件名 F:\Emule\New Release\Ultimate Vivaldi\Academy of St Martin - Marriner - Ultimate Vivaldi CD2.wav

可疑位置 1:01:36

峰值电平 63.6 %
范围质量 99.9 %
复制 CRC 3CC7980F
复制结束

出现错误


AccurateRip 概要

音轨 1 无法精确校验 (确认 2) [12C27FEA], AccurateRip 返回 [FEFBCA74]
音轨 2 无法精确校验 (确认 2) [72624FBA], AccurateRip 返回 [7CC3C42E]
音轨 3 无法精确校验 (确认 2) [CC4C2FEC], AccurateRip 返回 [4B3E2B59]
音轨 4 无法精确校验 (确认 2) [A234D659], AccurateRip 返回 [B504E744]
音轨 5 无法精确校验 (确认 2) [41890809], AccurateRip 返回 [FD80ABDC]
音轨 6 无法精确校验 (确认 2) [FF0D1E3A], AccurateRip 返回 [3F87FAFB]

没有音轨被精确验证

状态报告结尾

CD3.............................CD3

Exact Audio Copy V0.99 prebeta 4 from 23. January 2008

EAC 抓取日志文件从30. 十月 2008, 19:43

H.Schiff - Academy of St Martin / Ultimate Vivaldi CD3

使用驱动器 :PIONEER DVD-RW DVR-112 Adapter: 3 ID: 0

读取模式 : 保护
使用精确流 : 是
废除音频缓冲 : 是
使用 C2 指针 : 否

读取偏移校正 : 48
读取 Lead-In 和 Lead-Out : 是
用静音填充抓取中丢失偏移的采样 : 是
去除首尾静音块 : 否
在 CRC 计算中使用了空样本 : 是
已用接口 : Win NT 及 2000 本地 Win32 接口

所用输出格式 : 用户定义的编码器
已选比特率 : 1024 kBit/s
质量 : 高
添加 ID3 标签 : 否
命令行压缩器 : C:\Program Files\Exact Audio Copy\FLAC\FLAC.EXE
附加命令行参数 : -6 -V -T "ARTIST=%a" -T "TITLE=%t" -T "ALBUM=%g" -T "DATE=%y" -T "TRACKNUMBER=%n" -T "GENRE=%m" -T "COMMENT=%e" %s -o %d


被抓轨 CD 的 TOC

音轨 | 开始 | 长度 | 起始扇区 | 结尾扇区
--------------------------------------------------
1 | 0:00.33 | 2:59.00 | 33 | 13457
2 | 2:59.33 | 2:47.37 | 13458 | 26019
3 | 5:46.70 | 2:08.00 | 26020 | 35619
4 | 7:54.70 | 4:04.38 | 35620 | 53957
5 | 11:59.33 | 3:17.00 | 53958 | 68732
6 | 15:16.33 | 3:08.00 | 68733 | 82832
7 | 18:24.33 | 3:46.00 | 82833 | 99782
8 | 22:10.33 | 2:24.37 | 99783 | 110619
9 | 24:34.70 | 3:22.38 | 110620 | 125807
10 | 27:57.33 | 3:08.00 | 125808 | 139907
11 | 31:05.33 | 3:09.37 | 139908 | 154119
12 | 34:14.70 | 2:50.38 | 154120 | 166907
13 | 37:05.33 | 4:01.00 | 166908 | 184982
14 | 41:06.33 | 2:29.37 | 184983 | 196194
15 | 43:35.70 | 3:08.00 | 196195 | 210294


范围状态及错误

已选择范围

文件名 F:\Emule\New Release\Ultimate Vivaldi\H.Schiff - Academy of St Martin - Ultimate Vivaldi CD3.wav

峰值电平 88.7 %
范围质量 99.9 %
复制 CRC B50633B0
复制成功

没有错误发生


AccurateRip 概要

音轨 1 数据库中未见
音轨 2 数据库中未见
音轨 3 数据库中未见
音轨 4 数据库中未见
音轨 5 数据库中未见
音轨 6 数据库中未见
音轨 7 数据库中未见
音轨 8 数据库中未见
音轨 9 数据库中未见
音轨 10 数据库中未见
音轨 11 数据库中未见
音轨 12 数据库中未见
音轨 13 数据库中未见
音轨 14 数据库中未见
音轨 15 数据库中未见

没有任何音轨出现在 AccurateRip 数据库中

状态报告结尾

CD4.............................CD4

Exact Audio Copy V0.99 prebeta 4 from 23. January 2008

EAC 抓取日志文件从31. 十月 2008, 14:37

Los Romeros - Academy of St Martin / Ultimate Vivaldi CD4

使用驱动器 :PIONEER DVD-RW DVR-112 Adapter: 3 ID: 0

读取模式 : 保护
使用精确流 : 是
废除音频缓冲 : 是
使用 C2 指针 : 否

读取偏移校正 : 48
读取 Lead-In 和 Lead-Out : 是
用静音填充抓取中丢失偏移的采样 : 是
去除首尾静音块 : 否
在 CRC 计算中使用了空样本 : 是
已用接口 : Win NT 及 2000 本地 Win32 接口

所用输出格式 : 用户定义的编码器
已选比特率 : 1024 kBit/s
质量 : 高
添加 ID3 标签 : 否
命令行压缩器 : C:\Program Files\Exact Audio Copy\FLAC\FLAC.EXE
附加命令行参数 : -6 -V -T "ARTIST=%a" -T "TITLE=%t" -T "ALBUM=%g" -T "DATE=%y" -T "TRACKNUMBER=%n" -T "GENRE=%m" -T "COMMENT=%e" %s -o %d


被抓轨 CD 的 TOC

音轨 | 开始 | 长度 | 起始扇区 | 结尾扇区
--------------------------------------------------
1 | 0:00.33 | 3:57.00 | 33 | 17807
2 | 3:57.33 | 2:56.67 | 17808 | 31074
3 | 6:54.25 | 3:34.08 | 31075 | 47132
4 | 10:28.33 | 4:01.00 | 47133 | 65207
5 | 14:29.33 | 3:30.25 | 65208 | 80982
6 | 17:59.58 | 3:33.50 | 80983 | 97007
7 | 21:33.33 | 3:04.00 | 97008 | 110807
8 | 24:37.33 | 2:19.62 | 110808 | 121294
9 | 26:57.20 | 2:33.13 | 121295 | 132782
10 | 29:30.33 | 2:37.00 | 132783 | 144557
11 | 32:07.33 | 2:45.00 | 144558 | 156932
12 | 34:52.33 | 2:20.00 | 156933 | 167432
13 | 37:12.33 | 4:03.25 | 167433 | 185682
14 | 41:15.58 | 3:53.12 | 185683 | 203169
15 | 45:08.70 | 2:27.38 | 203170 | 214232


范围状态及错误

已选择范围

文件名 F:\Emule\New Release\Ultimate Vivaldi\Los Romeros - Academy of St Martin - Ultimate Vivaldi CD4.wav

峰值电平 97.0 %
范围质量 100.0 %
复制 CRC 10BD3D44
复制成功

没有错误发生


AccurateRip 概要

音轨 1 数据库中未见
音轨 2 数据库中未见
音轨 3 数据库中未见
音轨 4 数据库中未见
音轨 5 数据库中未见
音轨 6 数据库中未见
音轨 7 数据库中未见
音轨 8 数据库中未见
音轨 9 数据库中未见
音轨 10 数据库中未见
音轨 11 数据库中未见
音轨 12 数据库中未见
音轨 13 数据库中未见
音轨 14 数据库中未见
音轨 15 数据库中未见

没有任何音轨出现在 AccurateRip 数据库中

状态报告结尾

CD5.............................CD5

Exact Audio Copy V0.99 prebeta 4 from 23. January 2008

EAC 抓取日志文件从31. 十月 2008, 15:12

Various / Ultimate Vivaldi CD5

使用驱动器 :PIONEER DVD-RW DVR-112 Adapter: 3 ID: 0

读取模式 : 保护
使用精确流 : 是
废除音频缓冲 : 是
使用 C2 指针 : 否

读取偏移校正 : 48
读取 Lead-In 和 Lead-Out : 是
用静音填充抓取中丢失偏移的采样 : 是
去除首尾静音块 : 否
在 CRC 计算中使用了空样本 : 是
已用接口 : Win NT 及 2000 本地 Win32 接口

所用输出格式 : 用户定义的编码器
已选比特率 : 1024 kBit/s
质量 : 高
添加 ID3 标签 : 否
命令行压缩器 : C:\Program Files\Exact Audio Copy\FLAC\FLAC.EXE
附加命令行参数 : -6 -V -T "ARTIST=%a" -T "TITLE=%t" -T "ALBUM=%g" -T "DATE=%y" -T "TRACKNUMBER=%n" -T "GENRE=%m" -T "COMMENT=%e" %s -o %d


被抓轨 CD 的 TOC

音轨 | 开始 | 长度 | 起始扇区 | 结尾扇区
--------------------------------------------------
1 | 0:00.33 | 2:49.70 | 33 | 12777
2 | 2:50.28 | 6:00.25 | 12778 | 39802
3 | 8:50.53 | 2:27.32 | 39803 | 50859
4 | 11:18.10 | 1:13.05 | 50860 | 56339
5 | 12:31.15 | 2:12.50 | 56340 | 66289
6 | 14:43.65 | 1:15.03 | 66290 | 71917
7 | 15:58.68 | 2:04.32 | 71918 | 81249
8 | 18:03.25 | 1:38.15 | 81250 | 88614
9 | 19:41.40 | 3:00.40 | 88615 | 102154
10 | 22:42.05 | 1:42.23 | 102155 | 109827
11 | 24:24.28 | 3:52.05 | 109828 | 127232
12 | 28:16.33 | 5:43.17 | 127233 | 152974
13 | 33:59.50 | 4:37.40 | 152975 | 173789
14 | 38:37.15 | 3:19.18 | 173790 | 188732
15 | 41:56.33 | 2:44.15 | 188733 | 201047
16 | 44:40.48 | 4:47.52 | 201048 | 222624
17 | 49:28.25 | 2:42.18 | 222625 | 234792
18 | 52:10.43 | 0:26.02 | 234793 | 236744
19 | 52:36.45 | 1:03.43 | 236745 | 241512
20 | 53:40.13 | 4:05.50 | 241513 | 259937
21 | 57:45.63 | 2:30.55 | 259938 | 271242
22 | 60:16.43 | 3:05.35 | 271243 | 285152
23 | 63:22.03 | 1:25.65 | 285153 | 291592
24 | 64:47.68 | 2:31.60 | 291593 | 302977
25 | 67:19.53 | 0:51.52 | 302978 | 306854
26 | 68:11.30 | 3:17.08 | 306855 | 321637


范围状态及错误

已选择范围

文件名 F:\Emule\New Release\Ultimate Vivaldi\Various - Ultimate Vivaldi CD5.wav

峰值电平 97.4 %
范围质量 100.0 %
复制 CRC A2BBFDDF
复制成功

没有错误发生


AccurateRip 概要

音轨 1 已正确抓取 (确认 2) [A7BF42CC]
音轨 2 已正确抓取 (确认 2) [593A317C]
音轨 3 已正确抓取 (确认 2) [61188501]
音轨 4 已正确抓取 (确认 2) [2A4A64FC]
音轨 5 已正确抓取 (确认 2) [156BB8B6]
音轨 6 已正确抓取 (确认 2) [7C80B3EB]
音轨 7 已正确抓取 (确认 2) [D741D49D]
音轨 8 已正确抓取 (确认 2) [196CA3C1]
音轨 9 已正确抓取 (确认 2) [1EEFE85D]
音轨 10 已正确抓取 (确认 2) [272AA06D]
音轨 11 已正确抓取 (确认 2) [EDCF7790]
音轨 12 已正确抓取 (确认 2) [946B8798]
音轨 13 已正确抓取 (确认 2) [FE1A9C8F]
音轨 14 已正确抓取 (确认 2) [8D1C11F3]
音轨 15 已正确抓取 (确认 2) [CBC7B477]
音轨 16 已正确抓取 (确认 2) [4C4656C3]
音轨 17 已正确抓取 (确认 2) [65FECCE5]
音轨 18 已正确抓取 (确认 2) [30C8EAD5]
音轨 19 已正确抓取 (确认 2) [0E59104A]
音轨 20 已正确抓取 (确认 2) [8B4C5B3C]
音轨 21 已正确抓取 (确认 2) [890F3034]
音轨 22 已正确抓取 (确认 2) [CCC75F41]
音轨 23 已正确抓取 (确认 2) [60FBE013]
音轨 24 已正确抓取 (确认 2) [C5B11C7E]
音轨 25 已正确抓取 (确认 2) [49A08018]
音轨 26 已正确抓取 (确认 2) [BF153AF1]

所有音轨已被精确抓取

状态报告结尾



专辑曲目

CD1. Ultimate Vivaldi 1: The Four Seasons | Concertos for 3 & 4 violins
极致 - 维瓦尔第选集CD1:《四季》、为三把及为四把小提琴而作的协奏曲

Antonio Vivaldi (1678 - 1741)

Concerto for Violin and Strings in E, Op.8, No.1, RV269 "La Primavera"
E大调第一号小提琴协奏曲“春”, Op.8/1, RV269
01. 1. Allegro
02. 2. Largo
03. 3. Allegro (Danza pastorale)

Concerto for Violin and Strings in G minor, Op.8, No.2, RV315 "L'estate"
G小调第二号小提琴协奏曲“夏”, Op.8/2, RV315
04. 1a. Allegro non molto -
05. 1b. Allegro
06. 2. Adagio - Presto - Adagio
07. 3. Presto (Tempo impetuoso d'estate)

Concerto for Violin and Strings in F, Op.8, No.3, RV293 "L'autunno"
F大调第三号小提琴协奏曲“秋”, Op.8/3, RV293
08. 1. Allegro (Ballo, e canto de' villanelli)
09. 2. Adagio molto (Ubriachi dormienti)
10. 3. Allegro (La caccia)

Concerto for Violin and Strings in F minor, Op.8, No.4, RV297 "L'inverno"
F小调第四号小提琴协奏曲“冬”, Op.8/4, RV297
11. 1. Allegro non molto
12. 2. Largo
13. 3. Allegro

12 Concertos, Op.3 "L'estro armonico" - Concerto No.10 in B minor for 4 violins and cello, RV580 *
12首协奏曲集, Op.3 “和谐的灵感” - 第10号,B小调,为4把小提琴与大提琴而作的协奏曲, RV580
14. Allegro
15. Largo
16. Larghetto - Largo - 3. Allegro

Concerto for 3 Violins, Strings and Continuo in F, RV551 **
为3把小提琴而作的协奏曲, RV551
17. 1. Allegro
18. 2. Andante
19. 3. Allegro

- Salvatore Accardo, Mariana Sirbu*, Sylvie Gazeau*, Victor Martin*, Ida Levin**, Margaret Batjer** (violins) / I Solisti Di Napoli / DDD 1987
- 小提琴演奏:阿卡多、席尔布*、西尔维亚·盖齐奥*、维克多·马丁*、艾德·列文**、玛格丽特·巴约** - 伴奏:拿波里独奏家合奏团

CD2. Ultimate Vivaldi 2: Wind Concertos
极致 - 维瓦尔第选集CD2:管乐协奏曲

Antonio Vivaldi (1678 - 1741)

01. Oboe Concerto in F Major, RV456
F大调双簧管协奏曲, RV456
- Neil Black (oboe)
- 双簧管演奏:内尔·布莱克

02. Bassoon Concerto in A minor, RV498
A小调低音管协奏曲, RV498
- Martin Gatt (bassoon) / Kenneth Heath (cello) / Christopher Hogwood (harpsichord) / Colin Tilney (organ)
- 低音管演奏:马丁·盖特 - 大提琴:肯尼思·希斯 - 大键琴:霍格伍德 - 管风琴:科林·提尔尼

03. Flute Concerto in C minor, RV441
C小调长笛协奏曲, RV441
- William Bennett (flute) / Christopher Hogwood (harpsichord) / Colin Tilney (organ) / Kenneth Heath (cello)
- 长笛演奏:威廉·班尼特 - 大键琴:霍格伍德 - 管风琴:科林·提尔尼 - 大提琴:肯尼思·希斯

04. Concerto for 2 Oboes, Strings and Continuo in D minor, RV535
D小调两支双簧管协奏曲, RV535
- Celia Nicklin, Neil Black (oboes) / Christopher Hogwood (harpsichord) / Colin Tilney (organ)
- 双簧管演奏:西莉亚·妮克琳、内尔·布莱克 - 大键琴:霍格伍德 - 管风琴:科林·提尔尼

05. Flautino Concerto in C, RV443
C大调短笛协奏曲, RV443
- William Bennett (piccolo)
- 短笛演奏:威廉·班尼特

06. Concerto in F Major for two oboes, bassoon, two horns and violin
F大调两支双簧管、低音管、两把圆号及小提琴协奏曲
- Neil Black, Celia Nicklin (oboes) / Martin Gatt (bassoon) / Timothy Brown, Robin Davis (horns) / Iona Brown (violin) / Christopher Hogwood (harpsichord) / Colin Tilney (organ) / Kenneth Heath (cello)
- 双簧管演奏:西莉亚·妮克琳、内尔·布莱克 - 低音管:马丁·盖特 - 圆号:蒂莫西·布朗、罗宾·戴维斯 - 小提琴: 爱奥娜·布朗 - 大键琴:霍格伍德 - 管风琴:科林·提尔尼 - 大提琴:肯尼思·希斯

- The Academy of St. Martin in the Fields / Neville Marriner (conductor) / ADD 1975
- 圣马丁室内乐团 - 指挥:马里纳

CD3. Ultimate Vivaldi 3: Cello Concertos
极致 - 维瓦尔第选集CD3:大提琴协奏曲

Antonio Vivaldi (1678 - 1741)

Cello Concerto in F, RV411/412
F大调大提琴协奏曲, RV411/412
1. 1. Allegro (RV411)
2. 2. Larghetto (RV412)
3. 3. Allegro molto (RV411)

Cello Concerto in A minor, RV418
A小调大提琴协奏曲, RV418
4. 1. Allegro
5. 2. (Largo)
6. 3. Allegro

Cello Concerto in B minor, RV424
B小调大提琴协奏曲, RV424
7. 1. Allegro non molto
8. 2. Largo
9. 3. Allegro

Cello Concerto in G, RV413
G大调大提琴协奏曲, RV413
10. 1. Allegro
11. 2. Largo
12. 3. Allegro

Cello Concerto in C minor, RV401
C小调大提琴协奏曲, RV401
13. 1. Allegro non molto
14. 2. Adagio
15. 3. Allegro ma non molto

- Heinrich Schiff (cello) / Denis Vigay (cello continuo) / Ian Watson (harpsichord) / The Academy of St. Martin in the Fields / Iona Brown (conductor) / DDD 1983
大提琴演奏:席夫 - 大提琴和通奏低音:丹尼斯·维格 - 大键琴:伊恩·沃森 - 圣马丁室内乐团 - 指挥:爱奥娜·布朗

CD4. Ultimate Vivaldi 4: Guitar Concertos
极致 - 维瓦尔第选集CD4: 吉他协奏曲

Antonio Vivaldi (1678 - 1741)

12 Concertos, Op.3 "L'estro armonico" - Concerto No.10 in B minor for 4 violins and cello, RV580 (arr. for 4 guitars)
12首协奏曲集, Op.3 “和谐的灵感” - 第10号,B小调,为4把小提琴与大提琴而作的协奏曲, RV580(改编为4把吉他演奏)
01. Allegro
02. Largo-Larghetto
03. Allegro

Concerto for 2 Mandolins, Strings and Continuo in G, RV532 (arr. for 2 Guitars, Strings and Continuo)
G大调双曼陀林协奏曲, RV532(改编为2把吉他演奏)
04. 1. Allegro
05. 2. Andante
06. 3. Allegro

12 Concertos, Op.3 "L'estro armonico" - Concerto No. 6 in A minor for solo violin, RV356 (arr. for quitar)
12首协奏曲集, Op.3 “和谐的灵感” - 第6号,A小调,小提琴协奏曲, RV356(改编为吉他演奏)
07. Allegro
08. Largo
09. Presto

Mandolin Concerto in C, RV425 (arr. for quitar)
C大调曼陀林协奏曲, RV425(改编为吉他演奏)
10. 1. Allegro
11. 2. Largo
12. 3. (Allegro)

Concerto for Lute, 2 Violins and Continuo in D, RV93 (arr. for quitar and strings)
D大调鲁特琴与双小提琴协奏曲, RV93(改编为吉他及弦乐演奏)
13. 1. (Allegro giusto)
14. 2. Largo
15. 3. Allegro

- Los Romeros (guitars): Angel Romero (RV580, 532, 356), Celedonio Romero (RV580), Celin Romero (RV580, 93), Pepe Romero (RV580, 532, 425)
- Continuo: Alan Cuckston (harpsichord & organ) / Denis Vigay (cello)
- The Academy of St. Martin in the Fields / Iona Brown (conductor) / DDD 1984
- 改编:佩佩·罗梅洛 - 吉他演奏:罗梅洛吉他四重奏团 - 安杰尔(RV580, 532, 356)、赛勒多尼奥(RV580)、塞林(RV580, 93)、佩佩(RV580, 532, 425)
- 通奏低音:艾伦·喀克斯顿(大键琴及管风琴)- 丹尼斯·维格(大提琴)
- 圣马丁学院室内乐团 - 指挥:爱奥娜·布朗

CD5. Ultimate Vivaldi 5: Gloria
极致 - 维瓦尔第选集CD5:荣耀经

Antonio Vivaldi (1678 - 1741)

Gloria in D major, RV588
(Editions Costallat 1978; Revised Peter Ryom)
D大调荣耀经, RV588
01. Gloria in excelsis Deo (chorus) - 荣耀归于天国的上帝(合唱)
02. Et in terra pax hominibus (chorus) - 世界和平(合唱)
03. Laudamus te (soprano I & II) - 我们赞美你(第一、第二女高音)
04. Gratias agimus tibi (chorus) - 我们感谢你(合唱)
05. Domine Deus (tenor) - 我主上帝,天国之王(男高音)
06. Domine Fili Unigenite (chorus) - 我主唯一的独生子(合唱)
07. Domine Deus, Agnus Dei (soprano I) - 我主上帝,上帝的羔羊(第一女高音)
08. Qui tollis peccata mundi (chorus) - 你承担了世间的罪恶(合唱)
09. Qui sedes ad dexteram Patris (mezzo-soprano) - 你坐在天父的右面(女中音)
10. Quoniam tu solus Sanctus (soprano I) - 你是唯一的圣者(第一女高音)
11. Cum Sancto Spiritu (chorus) - 与圣灵在一起(合唱)

Concerto for Viola d'amore, Lute, Strings and Continuo in D minor, RV540 (arr. for guitar Malpiero)
D小调抒情维奥尔琴与鲁特琴协奏曲, RV540(由马利皮耶罗改编为吉他演奏)
12. 1. Allegro
13. 2. Largo
14. 3. Allegro

Gloria in D major, RV589
(G.Ricordi 1970, ed. Malipiero)
D大调荣耀经, RV589
15. Gloria in excelsis Deo (chorus) - 荣耀归于天国的上帝(合唱)
16. Et in terra pax hominibus (chorus) - 世界和平(合唱)
17. Laudamus te (soprano I & II) - 我们赞美你(第一、第二女高音)
18. Gratias agimus tibi (chorus) - 我们感谢你(合唱)
19. Propter magnam gloriam tuam (chorus) - 为了你无上的光荣(合唱)
20. Domine Deus (soprano I) - 我主上帝, 天国之王(第一女高音)
21. Domine Fili Unigenite (chorus) - 我主唯一的独生子(合唱)
22. Domine Deus, Agnus Dei (mezzo-soprano & chorus) - 我主上帝,上帝的羔羊(女中音及合唱)
23. Qui tollis peccata mundi (chorus) - 你承担了世间的罪恶(合唱)
24. Qui sedes ad dexteram Patris (mezzo-soprano) - 你坐在天父的右面(女中音)
25. Quoniam tu solus Sanctus (chorus) - 你是唯一的圣者(合唱)
26. Cum Sancto Spiritu (chorus) - 与圣灵在一起(合唱)

RV588 & RV589:
- Lynda Russell (soprano I) / Patrizia Kwella (soprano II) / Anne Wilkens (mezzo-soprano) / Kenneth Bowen (tenor) / Choir Of St. John's College, Cambridge / The Wren Orchestra / George Guest (conductor) / DDD 1981
第一女高音:琳达·卢赛儿 - 第二女高音:帕翠西亚·奎拉 - 女中音:安妮·维尔肯斯 - 男高音:肯尼思·博文 - 合唱:剑桥大学圣约翰学院合唱团 - 鹪鹩乐团 - 指挥:格斯特

RV540:
- Eduardo Fernandez (guitar) / Norbert Blume (viola d'amore) / English Chamber Orchestra / George Malcolm (conductor) / DDD 1986
- 吉他演奏:爱德瓦尔多·费尔南德斯 - 抒情维奥尔琴演奏:诺伯特·布流姆 - 英国室内乐团 - 指挥:马尔科姆

正在读取……

这里是其它用户补充的资源(我也要补充):

暂无补充资源
正在加载,请稍等...

点击查看所有97网友评论

 

(?) [公告]留口水、评论相关规则 | [活动]每日签到 轻松领取电驴经验

    小贴士:
  1. 类似“顶”、“沙发”之类没有营养的文字,对勤劳贡献的楼主来说是令人沮丧的反馈信息。
  2. 提问之前请再仔细看一遍楼主的说明,或许是您遗漏了。
  3. 勿催片。请相信驴友们对分享是富有激情的,如果确有更新版本,您一定能搜索到。
  4. 请勿到处挖坑绊人、招贴广告。既占空间让人厌烦,又没人会搭理,于人于己都无利。
  5. 如果您发现自己的评论不见了,请参考以上4条。