v

您的位置:VeryCD音乐古典音乐

音乐资源事务区


V.A. -《极致:亨德尔选集》(Ultimate Handel) DECCA极致系列 (5CD Box-set)[FLAC]

  • 状态: 精华资源
  • 摘要:
    发行时间2007年
  • 时间: 2008/10/20 13:38:23 发布 | 2008/10/24 18:27:41 更新
  • 分类: 音乐  古典音乐 

Leonson

精华资源: 78

全部资源: 78

相关: 分享到新浪微博   转播到腾讯微博   分享到开心网   分享到人人   分享到QQ空间   订阅本资源RSS更新   美味书签  subtitle
该内容尚未提供权利证明,无法提供下载。
专辑英文名Ultimate Handel
专辑中文名极致:亨德尔选集
艺术家V.A.
资源格式FLAC
版本 DECCA极致系列 (5CD Box-set)
发行时间2007年
地区英国
简介

IPB Image

盒装名称:Ultimate Handel, the essential masterpieces (5CD)
唱片公司:Decca
发行编号:475 8359 DB5
录音制式:DDD/ADD
专辑类型:Classical
CD编号:475 8360-64
资源出处:Leonson私人CD原版原抓

专辑介绍

关于DECCA的《Ultimate》极致系列

DECCA 公司出版的《Ultimate》极致系列包括多套5CD一组的主题选集,着重地介绍了各个时代的大师们最有影响力、最广为流传的古典音乐作品,其中包括贝多芬、巴赫、肖邦、柴可夫斯基、莫扎特、舒伯特等的必听之作。此外,该系列还以不同体裁作为类别划分,加入了古典小提琴、大提琴、钢琴、钢琴协奏曲、休闲古典、巴洛克、歌剧等主题选集。虽然这个系列中某些选曲的录音年份有些久远,但演绎者中不乏宗师级的人物,故欣赏价值也是颇高的。全系列由环球公司下属的德国 EDC压片生产,品质优良,而封面设计则简约而不失典雅。该系列比较适合初涉古典音乐的朋友欣赏、收藏,通过这套入门级的CD能对古典音乐有一个基本的、初步的认知和了解。而已是古典音乐爱好者的乐友,或许也能从中找到一些自己可能还没有听过的演绎版本。

如需要检索该系列各选集的下载地址,请参看【DECCA《极致》系列的下载地址列表】,地址如下:
http://www.VeryCD.com/groups/@g2121418/705001.topic


亨德尔简介

IPB Image

乔治·弗里德里希·亨德尔 (George Frideric Handel)

他是一代音乐大师,巴洛克音乐的代表人物,却不出身于音乐世家;他终生未婚,体态肥胖,却颇为讲究衣着打扮;他睿智而骄傲,乐观而幽默,尽管成就斐然,却被圈内人士指责为桀骜不驯、傲慢无理;他一生坎坷,遭遇精神和肉体的双重折磨,上流社会贵族们的攻击甚至迫害,却从不消沉,不言放弃。
《圣经》上记载,上帝在六日之内创造了自然万物,第七日便安歇。但有理由相信,上帝在休憩的间隙,不满足于人类的单一,而又造了两个禀赋天地灵气的男女,所以,在后来的世界上,才出现了亨德尔般的天才。
亨德尔出生于德国的小镇哈勒,作为理发师的儿子,他奇迹般地拥有极高的音乐天赋。但由于父亲的反对,年幼的亨德尔只能偷偷学习演奏。正如莫扎特的早慧一样,7岁时亨德尔已小有名气。并幸得当地的萨克森·魏森斯菲尔大公帮助,得以公开师从名师,得到深造。
虽然亨德尔11岁时已去柏林作过宫廷演出,但即使是父亲去世后,亨德尔还是满足了父亲的遗愿,选择了法学院攻读法律。直到大学毕业后,他才把全部精力投入到音乐中去。
1703年,热爱世俗音乐的亨德尔移居汉堡,在当地一家歌剧院担任管弦乐团的小提琴手。这时他开始尝试创作,最早的两部歌剧作品《阿尔米拉》和《尼禄》就是这期间诞生的,当时的意大利被称为“欧洲歌剧中心”,亨德尔去意大利留学后,游历各大名城,广交音乐大师,这个留学生的作品竟被誉为“歌剧典范”。
25岁的亨德尔学成归国后,尽管身价倍增,甚至被封为汉偌威选帝侯宫廷乐长,但他很清楚自己的终极追求是什么,德国不适合歌剧发展,他很快就去了伦敦,从此不断往返于英国与德国之间。直至1713年,他以一首应景的作品《女王生日颂歌》大获英国安妮女王的赏识,并获得终身恩俸,才决定在英国定居。
此后,安妮女王去世,选帝侯乔治于1727年以英王亲属身份即位。亨德尔为此创作了四首《加冕赞美歌》献给了新君乔治二世,其中的《祭师撒督》更成为后来的每次英皇加冕大典上的保留曲目。亨德尔因而深受宠幸,在欧洲乐坛大显身手。但好景不长,厄运接踵而至。18世纪20年代末期,英国听众趣味突变,亨德尔的创作演出遭遇多次失败。30年代他饱受宫廷阴谋与教会的攻击,苦心经营的歌剧院被迫关闭,此后又是中风与偏瘫的折磨;40年代他开始受到上流社会与贵族们的诸多指责,还得了严重的神经衰弱症;1751年,亨德尔再遭重创——双目失明。然而正如中国诗词创作规律“诗,穷而后工”一样,亨德尔一生最经典、最恢宏、最绚烂的作品——清唱剧《弥赛亚》却是在这期间创作的。亨德尔在自我封闭的状态下,仅用20多天就写完了它。在伦敦音乐厅演出时,英王乔治也为之起立。此后这一举动竟形成了传统,直到今天,人们在现场欣赏合唱《哈里路亚》时,都必须全体起立以示敬意。
亨德尔从十八世纪叁十年代末开始,从事于没有舞台表演的清唱剧创作,共写了叁十二部清唱剧,其中绝大部分是在英国创作的,对于英国的音乐产生了深远的影响。他的代表作有管弦乐曲《水上音乐》,《焰火音乐》,清唱剧《弥赛亚》等,《弥赛亚》中的《哈里路亚》流传最为广泛。
困苦中的亨德尔曾低语:上帝呵,我的上帝,你为什么离开了我?
而创作完《弥赛亚》后,他流着泪高喊:我看见了天国!我看见了耶稣!
1759年春,74岁高龄的亨德尔依然照例指挥了自己作品的演出。几天后的4月14日,大师与世长辞。像波兰的肖邦客死他乡一样,德国的亨德尔也以英籍身份长眠于伦敦。他逝世后被安葬在威斯敏斯特大教堂,墓碑上刻着《弥赛亚》第四十五曲的第一句:“我知道我的救世主活着”。

部分作品简介

管风琴协奏曲
亨德尔管风琴协奏曲主要是Op.4的6曲和Op.7的6曲,这两套协奏曲都是在英国活跃时期的作品。此外,另有4首无编号,共16首。
亨德尔在赴英前已是一位技巧高超的着名风琴师,到英国后他把主要精力放在了神剧创作,管风琴的演奏只为自娱,所以没有留下一首管风琴独奏曲的曲谱。而管风琴协奏曲在当时作为神剧的前引,形成一种氛围,将观众情绪引入神剧。这种在神剧前演奏的习惯,由亨德尔首创。开始是由亨德尔一人演奏,形成乐队其他乐器的呼应。这些协奏曲乐谱上注明:“大键琴或风琴用”,结构上大体由二声部(偶尔为叁声部),或一个旋律由和弦伴奏的形态写成,接近大协奏曲。这些协奏曲几乎都是仿托莱里结构,由缓—急—缓—急4乐章构成,采用维瓦尔第3乐章形式。

清唱剧《弥赛亚》
这一清唱剧作于1742年9月,作曲家亨德尔在一种不可遏止的热情冲动下,只用了二十多天就写出了这部注定要成为经典之作的清唱剧《弥赛亚》。这部作品曾是作者“流着眼泪写作”而成的,同样也打动了1743年在伦敦音乐厅观看首演时的所有听众,甚至英王乔治二世在听完第二幕终曲《哈里路亚》这一合唱后,起立以示敬意。这一举动竟形成了传统,直到今天,人们在现场欣赏合唱《哈里路亚》时,都必须全体起立以示敬意。
“弥赛亚”一词源于希伯莱语,意为“受膏者”(古犹太人封立君王、祭祀时,常举行在受封者头上敷膏油的仪式)。后被基督教用于对救世主耶稣的称呼。全剧分叁部分,共有序曲、咏叹调、重唱、合唱、间奏等57首分曲。第一部分叙述圣婴耶稣的诞生;第二部分是关于耶稣为拯救人类,四处传播福音以及受难而被钉死于十字架上的经历;第叁部分则是耶稣显圣复活的故事和赞美诗。这是亨德尔少数完全表现宗教内容的作品中最出色的一部,实际上其中对音乐的戏剧性和人性的宣传远胜于对宗教的虔诚感情。
全剧为主调和声音乐风格,以旋律优美、和声洗练见长。西西里民间乐器风笛的使用在当时是大胆而新颖的。由于其中不少分曲具有很高的技术训练价值和艺术性,至今仍在音乐会和声学教学中被广泛采用。

(资料来源:洪恩在线及相关其它网页 | 感谢原创资料提供人)


特别说明:
1、本人所上传的所有资源仅供试听之用。有需要的朋友请购买正版CD;
2、“专辑曲目”里ADD/DDD后面的年份均为录音年份。中文曲名仅供参考,如有谬误请予指正;
3、由于带宽限制,请大家在下载时给予充足的耐性。对于多碟套装资源,视分流情况,每天或隔天更新一张CD,直至更新完毕;
4、如有乐友转发此帖至其它网站或论坛,请自觉注明原出处为www.VeryCD.com,并给出ED2K链接。
免拆播放利人利己
部分朋友下载完资源后,往往会将其解压以便播放。倒不是说这些人都没有共享精神,但受硬盘空间的限制,解压后尤其是较大的压缩包常常不得不删除或转移了。从而在一定程度上影响了资源的分流分享。也辜负了发布者将文件打包强制保源完整性的苦心。但实际上大家完全可以不解压直接播放压缩包音乐的。这样一来就能不拆包、不删除、不转移,既节约了空间,又不影响使用,还可以更好地保持完整源的数目以便分享给别人。这种利人利己的好事,何乐而不为呢?
方法1:Winmount可以将常用压缩格式ZIP/RAR等直接虚拟为光驱,轻松搞定压缩包,不需解压,直接使用压缩包中的文件。中文免费软件。在使用上比方法2灵活快捷,几乎感觉不到延迟,且用户如同操作自己的磁盘上其他文件一样轻松。推荐使用此方法。普通用户建议使用其官方绿色版Mini WinMount V0.4。Daemon Tools大家应该很熟悉吧?MiniWinMount使用上也就类似Daemon Tools那样把压缩包甚至是文件夹作为镜像载入,卸载,超级简单的。
方法2:Footbar2000可以直接播放压缩包内的文件。方法是在菜单选“文件”-“添加文件”,指向该压缩包;或者直接把压缩包拖进FB2000播放窗口。不过这样需要较大的内存占用。低配置的机器会比较吃力。

引用
LOG文件

CD1................................CD1

Exact Audio Copy V0.99 prebeta 4 from 23. January 2008

EAC 抓取日志文件从11. 十月 2008, 16:20

Stuttgart Chamber Orchestra - Munchinger / Ultimate Handel CD1

使用驱动器 :PIONEER DVD-RW DVR-112 Adapter: 3 ID: 0

读取模式 : 保护
使用精确流 : 是
废除音频缓冲 : 是
使用 C2 指针 : 否

读取偏移校正 : 48
读取 Lead-In 和 Lead-Out : 是
用静音填充抓取中丢失偏移的采样 : 是
去除首尾静音块 : 否
在 CRC 计算中使用了空样本 : 是
已用接口 : Win NT 及 2000 本地 Win32 接口

所用输出格式 : 用户定义的编码器
已选比特率 : 1024 kBit/s
质量 : 高
添加 ID3 标签 : 否
命令行压缩器 : C:\Program Files\Exact Audio Copy\FLAC\FLAC.EXE
附加命令行参数 : -6 -V -T "ARTIST=%a" -T "TITLE=%t" -T "ALBUM=%g" -T "DATE=%y" -T "TRACKNUMBER=%n" -T "GENRE=%m" -T "COMMENT=%e" %s -o %d


被抓轨 CD 的 TOC

音轨 | 开始 | 长度 | 起始扇区 | 结尾扇区
--------------------------------------------------
1 | 0:00.33 | 3:48.22 | 33 | 17154
2 | 3:48.55 | 2:40.43 | 17155 | 29197
3 | 6:29.23 | 9:01.55 | 29198 | 69827
4 | 15:31.03 | 2:41.15 | 69828 | 81917
5 | 18:12.18 | 4:11.37 | 81918 | 100779
6 | 22:23.55 | 2:54.03 | 100780 | 113832
7 | 25:17.58 | 1:27.35 | 113833 | 120392
8 | 26:45.18 | 3:21.00 | 120393 | 135467
9 | 30:06.18 | 2:15.37 | 135468 | 145629
10 | 32:21.55 | 2:55.08 | 145630 | 158762
11 | 35:16.63 | 5:19.32 | 158763 | 182719
12 | 40:36.20 | 2:03.33 | 182720 | 191977
13 | 42:39.53 | 3:00.25 | 191978 | 205502
14 | 45:40.03 | 1:18.15 | 205503 | 211367
15 | 46:58.18 | 1:47.17 | 211368 | 219409
16 | 48:45.35 | 0:49.28 | 219410 | 223112
17 | 49:34.63 | 7:46.25 | 223113 | 258087
18 | 57:21.13 | 1:09.15 | 258088 | 263277
19 | 58:30.28 | 3:23.20 | 263278 | 278522
20 | 61:53.48 | 1:21.10 | 278523 | 284607
21 | 63:14.58 | 2:29.33 | 284608 | 295815


范围状态及错误

已选择范围

文件名 F:\Emule\New Release\Ultimate Handel\Stuttgart Chamber Orchestra - Munchinger - Ultimate Handel CD1.wav

可疑位置 1:05:43

峰值电平 97.8 %
范围质量 99.9 %
复制 CRC 8992588C
复制结束

出现错误


AccurateRip 概要

音轨 1 数据库中未见
音轨 2 数据库中未见
音轨 3 数据库中未见
音轨 4 数据库中未见
音轨 5 数据库中未见
音轨 6 数据库中未见
音轨 7 数据库中未见
音轨 8 数据库中未见
音轨 9 数据库中未见
音轨 10 数据库中未见
音轨 11 数据库中未见
音轨 12 数据库中未见
音轨 13 数据库中未见
音轨 14 数据库中未见
音轨 15 数据库中未见
音轨 16 数据库中未见
音轨 17 数据库中未见
音轨 18 数据库中未见
音轨 19 数据库中未见
音轨 20 数据库中未见
音轨 21 数据库中未见

没有任何音轨出现在 AccurateRip 数据库中

状态报告结尾

CD2................................CD2

Exact Audio Copy V0.99 prebeta 4 from 23. January 2008

EAC 抓取日志文件从12. 十月 2008, 13:29

English Chamber Orchestra - Leppard / Ultimate Handel CD2

使用驱动器 :PIONEER DVD-RW DVR-112 Adapter: 3 ID: 0

读取模式 : 保护
使用精确流 : 是
废除音频缓冲 : 是
使用 C2 指针 : 否

读取偏移校正 : 48
读取 Lead-In 和 Lead-Out : 是
用静音填充抓取中丢失偏移的采样 : 是
去除首尾静音块 : 否
在 CRC 计算中使用了空样本 : 是
已用接口 : Win NT 及 2000 本地 Win32 接口

所用输出格式 : 用户定义的编码器
已选比特率 : 1024 kBit/s
质量 : 高
添加 ID3 标签 : 否
命令行压缩器 : C:\Program Files\Exact Audio Copy\FLAC\FLAC.EXE
附加命令行参数 : -6 -V -T "ARTIST=%a" -T "TITLE=%t" -T "ALBUM=%g" -T "DATE=%y" -T "TRACKNUMBER=%n" -T "GENRE=%m" -T "COMMENT=%e" %s -o %d


被抓轨 CD 的 TOC

音轨 | 开始 | 长度 | 起始扇区 | 结尾扇区
--------------------------------------------------
1 | 0:00.33 | 3:00.00 | 33 | 13532
2 | 3:00.33 | 5:07.00 | 13533 | 36557
3 | 8:07.33 | 1:34.00 | 36558 | 43607
4 | 9:41.33 | 3:08.00 | 43608 | 57707
5 | 12:49.33 | 2:08.00 | 57708 | 67307
6 | 14:57.33 | 3:12.00 | 67308 | 81707
7 | 18:09.33 | 1:57.00 | 81708 | 90482
8 | 20:06.33 | 2:09.00 | 90483 | 100157
9 | 22:15.33 | 0:48.22 | 100158 | 103779
10 | 23:03.55 | 2:47.53 | 103780 | 116357
11 | 25:51.33 | 1:16.40 | 116358 | 122097
12 | 27:07.73 | 3:24.35 | 122098 | 137432
13 | 30:32.33 | 1:45.52 | 137433 | 145359
14 | 32:18.10 | 2:53.23 | 145360 | 158357
15 | 35:11.33 | 2:10.50 | 158358 | 168157
16 | 37:22.08 | 2:06.25 | 168158 | 177632
17 | 39:28.33 | 3:00.00 | 177633 | 191132
18 | 42:28.33 | 1:48.00 | 191133 | 199232
19 | 44:16.33 | 3:31.00 | 199233 | 215057
20 | 47:47.33 | 3:45.00 | 215058 | 231932
21 | 51:32.33 | 1:41.00 | 231933 | 239507
22 | 53:13.33 | 1:37.00 | 239508 | 246782
23 | 54:50.33 | 2:29.00 | 246783 | 257957
24 | 57:19.33 | 1:39.62 | 257958 | 265444
25 | 58:59.20 | 2:03.13 | 265445 | 274682
26 | 61:02.33 | 3:01.00 | 274683 | 288257
27 | 64:03.33 | 3:03.00 | 288258 | 301982
28 | 67:06.33 | 4:22.00 | 301983 | 321632
29 | 71:28.33 | 2:52.00 | 321633 | 334532


范围状态及错误

已选择范围

文件名 F:\Emule\New Release\Ultimate Handel\English Chamber Orchestra - Leppard - Ultimate Handel CD2.wav

峰值电平 84.8 %
范围质量 99.9 %
复制 CRC E2941BB2
复制成功

没有错误发生


AccurateRip 概要

音轨 1 无法精确校验 (确认 1) [25ED7DA5], AccurateRip 返回 [44BC90F4]
音轨 2 无法精确校验 (确认 1) [9544C948], AccurateRip 返回 [8D9E149A]
音轨 3 无法精确校验 (确认 1) [044067C9], AccurateRip 返回 [86936242]
音轨 4 无法精确校验 (确认 1) [4378DBAF], AccurateRip 返回 [A18E022E]
音轨 5 无法精确校验 (确认 1) [7D23791F], AccurateRip 返回 [96418E3D]
音轨 6 无法精确校验 (确认 1) [5C2A799A], AccurateRip 返回 [F8246469]
音轨 7 无法精确校验 (确认 1) [457A823F], AccurateRip 返回 [AA922F54]
音轨 8 无法精确校验 (确认 1) [9AE2B4E5], AccurateRip 返回 [0C751E0D]
音轨 9 无法精确校验 (确认 1) [05012D96], AccurateRip 返回 [3D6B750C]
音轨 10 无法精确校验 (确认 1) [9592A123], AccurateRip 返回 [A3AD23D2]
音轨 11 无法精确校验 (确认 1) [97620193], AccurateRip 返回 [E7EF7272]
音轨 12 无法精确校验 (确认 1) [6A62D14B], AccurateRip 返回 [1E26A30E]
音轨 13 无法精确校验 (确认 1) [7E441A4E], AccurateRip 返回 [15D62AB8]
音轨 14 无法精确校验 (确认 1) [E48F1B7C], AccurateRip 返回 [CD17CD40]
音轨 15 无法精确校验 (确认 1) [E579C766], AccurateRip 返回 [98F7D312]
音轨 16 无法精确校验 (确认 1) [B76B1623], AccurateRip 返回 [F4432B5D]
音轨 17 无法精确校验 (确认 1) [6C8EA8A7], AccurateRip 返回 [45C477DE]
音轨 18 无法精确校验 (确认 1) [C70C30C2], AccurateRip 返回 [23D2A958]
音轨 19 无法精确校验 (确认 1) [2D3BF693], AccurateRip 返回 [4008B422]
音轨 20 无法精确校验 (确认 1) [380B64AB], AccurateRip 返回 [EE939E20]
音轨 21 无法精确校验 (确认 1) [F8F80B90], AccurateRip 返回 [5471B1EE]
音轨 22 无法精确校验 (确认 1) [3267735E], AccurateRip 返回 [07B96A95]
音轨 23 无法精确校验 (确认 1) [535DA1A4], AccurateRip 返回 [484CE943]
音轨 24 无法精确校验 (确认 1) [B1B044AE], AccurateRip 返回 [E8AD630E]
音轨 25 无法精确校验 (确认 1) [9032A79A], AccurateRip 返回 [EA25A58B]
音轨 26 无法精确校验 (确认 1) [307E1CC0], AccurateRip 返回 [1D021476]
音轨 27 无法精确校验 (确认 1) [174C76A8], AccurateRip 返回 [27824BC8]
音轨 28 无法精确校验 (确认 1) [ACE5E23F], AccurateRip 返回 [20FD94B4]
音轨 29 无法精确校验 (确认 1) [1A843C24], AccurateRip 返回 [DC871941]

没有音轨被精确验证
你可能遇到在数据库中的一词多义

状态报告结尾

CD3................................CD3

Exact Audio Copy V0.99 prebeta 4 from 23. January 2008

EAC 抓取日志文件从12. 十月 2008, 15:54

Concerto Amsterdam - Schroder / Ultimate Handel CD3

使用驱动器 :PIONEER DVD-RW DVR-112 Adapter: 3 ID: 0

读取模式 : 保护
使用精确流 : 是
废除音频缓冲 : 是
使用 C2 指针 : 否

读取偏移校正 : 48
读取 Lead-In 和 Lead-Out : 是
用静音填充抓取中丢失偏移的采样 : 是
去除首尾静音块 : 否
在 CRC 计算中使用了空样本 : 是
已用接口 : Win NT 及 2000 本地 Win32 接口

所用输出格式 : 用户定义的编码器
已选比特率 : 1024 kBit/s
质量 : 高
添加 ID3 标签 : 否
命令行压缩器 : C:\Program Files\Exact Audio Copy\FLAC\FLAC.EXE
附加命令行参数 : -6 -V -T "ARTIST=%a" -T "TITLE=%t" -T "ALBUM=%g" -T "DATE=%y" -T "TRACKNUMBER=%n" -T "GENRE=%m" -T "COMMENT=%e" %s -o %d


被抓轨 CD 的 TOC

音轨 | 开始 | 长度 | 起始扇区 | 结尾扇区
--------------------------------------------------
1 | 0:00.33 | 4:42.00 | 33 | 21182
2 | 4:42.33 | 1:37.00 | 21183 | 28457
3 | 6:19.33 | 2:23.00 | 28458 | 39182
4 | 8:42.33 | 5:48.00 | 39183 | 65282
5 | 14:30.33 | 3:49.00 | 65283 | 82457
6 | 18:19.33 | 2:38.00 | 82458 | 94307
7 | 20:57.33 | 2:55.00 | 94308 | 107432
8 | 23:52.33 | 1:33.50 | 107433 | 114457
9 | 25:26.08 | 5:15.22 | 114458 | 138104
10 | 30:41.30 | 2:42.03 | 138105 | 150257
11 | 33:23.33 | 7:18.00 | 150258 | 183107
12 | 40:41.33 | 0:57.00 | 183108 | 187382
13 | 41:38.33 | 5:57.00 | 187383 | 214157
14 | 47:35.33 | 5:42.00 | 214158 | 239807
15 | 53:17.33 | 1:56.00 | 239808 | 248507
16 | 55:13.33 | 1:24.50 | 248508 | 254857
17 | 56:38.08 | 3:32.25 | 254858 | 270782
18 | 60:10.33 | 3:04.00 | 270783 | 284582


范围状态及错误

已选择范围

文件名 F:\Emule\New Release\Ultimate Handel\Concerto Amsterdam - Schroder - Ultimate Handel CD3.wav

峰值电平 98.0 %
范围质量 100.0 %
复制 CRC 99BB1745
复制成功

没有错误发生


AccurateRip 概要

音轨 1 数据库中未见
音轨 2 数据库中未见
音轨 3 数据库中未见
音轨 4 数据库中未见
音轨 5 数据库中未见
音轨 6 数据库中未见
音轨 7 数据库中未见
音轨 8 数据库中未见
音轨 9 数据库中未见
音轨 10 数据库中未见
音轨 11 数据库中未见
音轨 12 数据库中未见
音轨 13 数据库中未见
音轨 14 数据库中未见
音轨 15 数据库中未见
音轨 16 数据库中未见
音轨 17 数据库中未见
音轨 18 数据库中未见

没有任何音轨出现在 AccurateRip 数据库中

状态报告结尾

CD4................................CD4

Exact Audio Copy V0.99 prebeta 4 from 23. January 2008

EAC 抓取日志文件从12. 十月 2008, 16:34

Choir Of Winchester Cathedral - The Brandenburg Consort / Ultimate Handel CD4

使用驱动器 :PIONEER DVD-RW DVR-112 Adapter: 3 ID: 0

读取模式 : 保护
使用精确流 : 是
废除音频缓冲 : 是
使用 C2 指针 : 否

读取偏移校正 : 48
读取 Lead-In 和 Lead-Out : 是
用静音填充抓取中丢失偏移的采样 : 是
去除首尾静音块 : 否
在 CRC 计算中使用了空样本 : 是
已用接口 : Win NT 及 2000 本地 Win32 接口

所用输出格式 : 用户定义的编码器
已选比特率 : 1024 kBit/s
质量 : 高
添加 ID3 标签 : 否
命令行压缩器 : C:\Program Files\Exact Audio Copy\FLAC\FLAC.EXE
附加命令行参数 : -6 -V -T "ARTIST=%a" -T "TITLE=%t" -T "ALBUM=%g" -T "DATE=%y" -T "TRACKNUMBER=%n" -T "GENRE=%m" -T "COMMENT=%e" %s -o %d


被抓轨 CD 的 TOC

音轨 | 开始 | 长度 | 起始扇区 | 结尾扇区
--------------------------------------------------
1 | 0:00.00 | 5:48.00 | 0 | 26099
2 | 5:48.00 | 3:08.50 | 26100 | 40249
3 | 8:56.50 | 3:03.62 | 40250 | 54036
4 | 12:00.37 | 2:06.50 | 54037 | 63536
5 | 14:07.12 | 2:58.38 | 63537 | 76924
6 | 17:05.50 | 2:58.50 | 76925 | 90324
7 | 20:04.25 | 2:37.37 | 90325 | 102136
8 | 22:41.62 | 2:40.25 | 102137 | 114161
9 | 25:22.12 | 2:57.25 | 114162 | 127461
10 | 28:19.37 | 2:54.38 | 127462 | 140549
11 | 31:14.00 | 2:57.50 | 140550 | 153874
12 | 34:11.50 | 3:15.62 | 153875 | 168561
13 | 37:27.37 | 4:18.50 | 168562 | 187961
14 | 41:46.12 | 2:59.25 | 187962 | 201411
15 | 44:45.37 | 4:01.00 | 201412 | 219486
16 | 48:46.37 | 3:40.00 | 219487 | 235986
17 | 52:26.37 | 5:11.25 | 235987 | 259336
18 | 57:37.62 | 3:31.13 | 259337 | 275174
19 | 61:09.00 | 4:22.25 | 275175 | 294849


范围状态及错误

已选择范围

文件名 F:\Emule\New Release\Ultimate Handel\Choir Of Winchester Cathedral - The Brandenburg Consort - Ultimate Handel CD4.wav

可疑位置 1:05:31

峰值电平 84.1 %
范围质量 99.9 %
复制 CRC A9E139D1
复制结束

出现错误


AccurateRip 概要

音轨 1 数据库中未见
音轨 2 数据库中未见
音轨 3 数据库中未见
音轨 4 数据库中未见
音轨 5 数据库中未见
音轨 6 数据库中未见
音轨 7 数据库中未见
音轨 8 数据库中未见
音轨 9 数据库中未见
音轨 10 数据库中未见
音轨 11 数据库中未见
音轨 12 数据库中未见
音轨 13 数据库中未见
音轨 14 数据库中未见
音轨 15 数据库中未见
音轨 16 数据库中未见
音轨 17 数据库中未见
音轨 18 数据库中未见
音轨 19 数据库中未见

没有任何音轨出现在 AccurateRip 数据库中

状态报告结尾

CD5................................CD5

Exact Audio Copy V0.99 prebeta 4 from 23. January 2008

EAC 抓取日志文件从12. 十月 2008, 19:18

Academy of St Martin in the Fields - Marriner / Ultimate Handel CD5

使用驱动器 :PIONEER DVD-RW DVR-112 Adapter: 3 ID: 0

读取模式 : 保护
使用精确流 : 是
废除音频缓冲 : 是
使用 C2 指针 : 否

读取偏移校正 : 48
读取 Lead-In 和 Lead-Out : 是
用静音填充抓取中丢失偏移的采样 : 是
去除首尾静音块 : 否
在 CRC 计算中使用了空样本 : 是
已用接口 : Win NT 及 2000 本地 Win32 接口

所用输出格式 : 用户定义的编码器
已选比特率 : 1024 kBit/s
质量 : 高
添加 ID3 标签 : 否
命令行压缩器 : C:\Program Files\Exact Audio Copy\FLAC\FLAC.EXE
附加命令行参数 : -6 -V -T "ARTIST=%a" -T "TITLE=%t" -T "ALBUM=%g" -T "DATE=%y" -T "TRACKNUMBER=%n" -T "GENRE=%m" -T "COMMENT=%e" %s -o %d


被抓轨 CD 的 TOC

音轨 | 开始 | 长度 | 起始扇区 | 结尾扇区
--------------------------------------------------
1 | 0:00.33 | 3:00.02 | 33 | 13534
2 | 3:00.35 | 3:26.08 | 13535 | 28992
3 | 6:26.43 | 3:01.45 | 28993 | 42612
4 | 9:28.13 | 0:30.50 | 42613 | 44912
5 | 9:58.63 | 5:32.25 | 44913 | 69837
6 | 15:31.13 | 3:38.22 | 69838 | 86209
7 | 19:09.35 | 0:16.53 | 86210 | 87462
8 | 19:26.13 | 1:48.27 | 87463 | 95589
9 | 21:14.40 | 4:15.48 | 95590 | 114762
10 | 25:30.13 | 2:58.02 | 114763 | 128114
11 | 28:28.15 | 4:48.48 | 128115 | 149762
12 | 33:16.63 | 3:30.22 | 149763 | 165534
13 | 36:47.10 | 3:45.33 | 165535 | 182442
14 | 40:32.43 | 5:17.02 | 182443 | 206219
15 | 45:49.45 | 4:03.10 | 206220 | 224454
16 | 49:52.55 | 2:54.18 | 224455 | 237522
17 | 52:46.73 | 3:41.38 | 237523 | 254135


范围状态及错误

已选择范围

文件名 F:\Emule\New Release\Ultimate Handel\Academy of St Martin in the Fields - Marriner - Ultimate Handel CD5.wav

峰值电平 93.9 %
范围质量 100.0 %
复制 CRC DF196924
复制成功

没有错误发生


AccurateRip 概要

音轨 1 数据库中未见
音轨 2 数据库中未见
音轨 3 数据库中未见
音轨 4 数据库中未见
音轨 5 数据库中未见
音轨 6 数据库中未见
音轨 7 数据库中未见
音轨 8 数据库中未见
音轨 9 数据库中未见
音轨 10 数据库中未见
音轨 11 数据库中未见
音轨 12 数据库中未见
音轨 13 数据库中未见
音轨 14 数据库中未见
音轨 15 数据库中未见
音轨 16 数据库中未见
音轨 17 数据库中未见

没有任何音轨出现在 AccurateRip 数据库中

状态报告结尾



专辑曲目

CD1. Ultimate Handel 1: Water Music | Music for the Royal Fireworks
极致 - 亨德尔选集CD1:水上音乐、皇家焰火音乐

George Frideric Handel (1685 - 1759)

Water Music Suite No.1 in F, HWV 348
水上音乐F大调第一号组曲, HWV 348
01. Ouverture
02. Adagio e staccato
03. Allegro - Andante
04. Presto
05. Air
06. Minuet
07. Bourée and Hornpipe
08. Allegro

Water Music Suite No.3 in G, HWV 350
水上音乐G大调第三号组曲, HWV 350
09. Minuet & Trio
10. Rigaudon I & II
11. Minuet I - Minuet II - Country Dance

Water Music Suite No. 2 in D, HWV 349
水上音乐D大调第二组曲, HWV 349
D大调水上音乐
12. Allegro
13. Alla Hornpipe
14. Minuet
15. Lentement
16. Bourée

Music for the Royal Fireworks: Suite HWV 351
皇家焰火音乐, HWV 351
17. 1. [Ouverture]
18. 2. Bourrée
19. 3. La Paix
20. 4. La Réjouissance
21. 5. Minuet I & II

- Stuttgarter Kammerorchester / Karl Münchinger (conductor) / DDD 1981
- 斯图加特室内乐团 - 指挥:明兴格尔

CD2. Ultimate Handel 2: Concerti grossi Op.3
极致 - 亨德尔选集CD2:大协奏曲 Op.3

George Frideric Handel (1685 - 1759)

Concerto grosso in B flat, Op.3, No.1 *
降B大调大协奏曲, Op.3/1 *
01. 1. Allegro
02. 2. Largo
03. 3. Allegro
04. 4. Allegro

Concerto grosso in B flat, Op.3, No.2 **
降B大调大协奏曲, Op.3 No.2
05. 1. Vivace - Grave
06. 2. Largo
07. 3. Allegro
08. 4. Minuet

Concerto grosso in G, Op.3, No.3
G大调大协奏曲, Op.3 No.3
09. 1. Largo e staccato
10. 2. Allegro
11. 3. Adagio
12. 4. Allegro

Concerto grosso in F, Op.3, No.4
F大调大协奏曲, Op.3 No.4
13. 1a. Andante
14. 1b. Allegro - Lentemente
15. 2. Andante
16. 3. Allegro
17. 4. Minuetto

Concerto grosso in F, Op.3, No.4bis
F大调大协奏曲, Op.3 No.4bis
18. 1. Largo
19. 2. Allegro
20. 3. Largo
21. 4. Allegro

Concerto grosso in D minor, Op.3, No.5
D小调大协奏曲, Op.3 No.5
22. 1. (without tempo indication)
23. 2. Fuga (Allegro)
24. 3. Adagio
25. 4. Allegro, ma non troppo
26. 5. Allegro

Concerto grosso in D, Op.3, No.6
D大调大协奏曲, Op.3 No.6
27. 1. Vivace
28. 2. Allegro

29. Concerto grosso in F, Op.3, No.2bis - Largo
F大调大协奏曲, Op.3 No.2bis

- David Munrow, John Turner (recorder) / Richard Adeney (German flute) / Neil Black, James Brown (Oboes) / Martin Gatt (bassoon) / Ian Harper, Anthony Randall (horns) / Keneth Sillito, John Tunnell (violins) / Kenneth Heath (cello) / Anita Lasker / (cello)** / James Tyler (chitarrone) / Leslie Pearson (harpsichord, organ*) / John Constable (harpsichord)*
- 竖笛:大卫·门罗、约翰·特纳 - 德国长笛:理查·阿德尼 - 双簧管:内尔·布莱克、詹姆斯·布朗 - 巴松管:马丁·咖特 - 圆号:伊恩·哈珀、安东尼·兰德尔 - 小提琴:肯尼斯·西利托、约翰·塔内尔 - 大提琴:肯尼斯·希思、安妮塔·拉丝克 ** - 基塔隆尼琴:詹姆斯·泰勒 - 大键琴及管风琴:莱斯利·皮尔森 - 大键琴:约翰·康斯特贝尔
- English Chamber Orchestra / Raymond Leppard (conductor) / ADD 1971
- 英国室内乐团 - 指挥:莱帕德

CD3. Ultimate Handel 3: Organ Concertos
极致 - 亨德尔选集CD3:管风琴协奏曲

George Frideric Handel (1685 - 1759)

Organ Concerto No.5 in F, Op.4 No.5
F大调第5号管风琴协奏曲, Op.4/5
01. 1. Larghetto - 2. Allegro
02. 3. Alla siciliana
03. 4. Presto

Organ Concerto No.6 in B flat, Op.4 No.6
降B大调第6号管风琴协奏曲, Op.4/6
04. 1. Andante allegro
05. 2. Larghetto
06. 3. Allegro moderato

Organ Concerto No.11 in G minor, Op.7 No.5 HWV 310
G小调第11号管风琴协奏曲, Op.7/5 HWV 310
07. 1. Allegro ma non troppo e staccato
08. 2. Adagio
09. 3. Andante larghetto e staccato
10. 4. Menuet

Organ Concerto No.8 in A, Op.7 No.2
A大调第8号管风琴协奏曲, Op.7/2
11. 1. Overture - 2. A tempo ordinario
12. 3. Adagio
13. 4. Allegro

Organ Concerto No.13 in F "Cuckoo and the Nightingale" HWV 295
F大调第13号管风琴协奏曲“布谷鸟与夜莺”, HWV 295
14. 1. Larghetto - Allegro
15. 2. Adagio
16. 3. Allegro
17. 4. Larghetto
18. 5. Allegro

- Daniel Chorzempa (organ) / Concerto Amsterdam / Jaap Schröder (conductor) / ADD: 1975
- 管风琴演奏:丹尼尔·乔曾帕 - 阿姆斯特丹协奏团 - 指挥:施洛德

CD4. Ultimate Handel 4: Four Coronation Anthems | Foundling Hospital Anthem
极致 - 亨德尔选集CD4:四首加冕赞美歌、育婴堂赞美歌

George Frideric Handel (1685 - 1759)

Coronation Anthems for George II
献给乔治二世的加冕赞美歌

01. Zadok the Priest (Coronation Anthem No.1, HWV 258)
加冕赞美歌第一首:祭师撒督, HWV 258

Let thy hand be strengthened (Coronation Anthem No.2, HWV 259)
加冕赞美歌第二首:让你的手更坚强, HWV 259
02. 1. Let thy hand be strengthened
03. 2. Let justice and judgment
04. 3. Alleluia!

The king shall rejoice (Coronation Anthem No.3, HWV 260)
加冕赞美歌第三首:王将欢欣, HWV 260
05. 1. The king shall rejoice
06. 2. Exceeding glad shall he be
07. 3. Glory and worship hast thou laid upon him
08. 4. Alleluia!

My heart is inditing (Coronation Anthem No.4, HWV 261)
加冕赞美歌第四首:我心涌出美辞, HWV 261
09. 1. My heart is inditing
10. 2. King's daughters were among their honourable women
11. 3. Upon thy right hand
12. 4. Kings shall be thy nursing fathers

Foundling Hospital Anthem HWV 268
育婴堂赞美歌, HWV 268
13. Blessed are they that considereth the poor (tenor solo)
14. Blessed are they ... They deliver the poor (chorus)
15. O God who from the suckling's mouth (countertenor solo)
16. The charitable shall be had in everlasting remembrance (soprano I & II, countertenor and tenor solo)
17. Comfort them, o Lord (chorus)
18. The people will tell of their wisdom (soprano I & II solo)
19. Hallelujah! for the Lord God omnipotent reigneth (chorus)

- 女高音一号:Gallian Fisher (soprano I) / 女高音二号:Libby Crabtree (soprano II) / 高男高音:Charles Brett (countertenor) / 男高音:John Elwes (tenor)
- Choir Of Winchester Cathedral / The Brandenburg Consort / David Hill (conductor) / DDD 1993
- 温彻斯特大教堂合唱团 - 勃兰登堡合奏团 - 指挥:大卫·希尔

CD5. Ultimate Handel 5: Messiah Highlights
极致 - 亨德尔选集CD5:《弥赛亚》精选

George Frideric Handel (1685 - 1759)

01. Comfort ye (tenor solo) - 安慰你们, 我的子民(男高音独唱)
02. Ev'ry valley (tenor solo) - 一切山谷(男高音独唱)
03. And the glory of the Lord (chorus) - 耶和华的荣耀(合唱)
04. Behold a virgin shall conceive (soprano solo) - 看那, 必有童女要怀孕(女高音独唱)
05. O thou that tellest good tidings to Zion (contralto solo & chorus) - 你向锡安传递了好消息(女低音独唱及合唱)
06. For unto us a Child is born (chorus) - 圣婴为我们而降生(合唱)
07. And suddenly there was with the angel (soprano solo) - 忽然有天军与天使(女高音独唱)
08. Glory to God in the highest (chorus) - 荣耀归于主(合唱)
09. Rejoice greatly, o daughter of Zion (soprano solo) - 锡安的子民欢欣鼓舞(女高音独唱)
10. Behold the Lamb of God (chorus) - 看, 旷代羔羊(合唱)
11. He was despised (contralto solo) - 他被人藐视(女低音独唱)
12. All we like sheep have gone astray (chorus) - 我们都像迷途的羔羊(合唱)
13. Hallelujah! (chorus) - 哈利路亚(合唱)
14. I know that my Redeemer liveth (soprano solo) - 我知道我的救世主活着(女高音独唱)
15. The trumpet shall sound (bass solo)* - 号角将要吹响(男低音独唱)
16. Worthy is The Lamb ... Blessing and honour (chorus) - 曾被杀的羔羊值得配有权柄(合唱)
17. Amen (chorus) - 阿门(合唱)

- 女高音:Elly Ameling (soprano) / 女低音:Anna Reynolds (contralto) / 男高音:Philip Langridge (tenor) / 男低音:Gwynne Howell (bass) / 小号:John Wilbraham (trumpet)* / 大提琴及通奏低音:Kenneth Heath (cello & continuo) / 大键琴:Nicholas Kraemer (harpsichord) / 家用管风琴:Christopher Hogwood (chamber organ)
- Academy of St Martin in the Fields & Chorus / Sir Neville Marriner (conductor) / ADD 1976
- 圣马丁室内乐团及合唱团 - 指挥:马里纳

正在读取……

这里是其它用户补充的资源(我也要补充):

暂无补充资源
正在加载,请稍等...

点击查看所有76网友评论

 

(?) [公告]留口水、评论相关规则 | [活动]每日签到 轻松领取电驴经验

    小贴士:
  1. 类似“顶”、“沙发”之类没有营养的文字,对勤劳贡献的楼主来说是令人沮丧的反馈信息。
  2. 提问之前请再仔细看一遍楼主的说明,或许是您遗漏了。
  3. 勿催片。请相信驴友们对分享是富有激情的,如果确有更新版本,您一定能搜索到。
  4. 请勿到处挖坑绊人、招贴广告。既占空间让人厌烦,又没人会搭理,于人于己都无利。
  5. 如果您发现自己的评论不见了,请参考以上4条。