v

您的位置:VeryCD音乐古典音乐

音乐资源事务区


Budapest Symphony Orchestra & István Bogár -《勃拉姆斯:匈牙利舞曲》(Brahms: Hungarian Dances Nos.1-21)(NAXOS)[FLAC]

  • 状态: 精华资源
  • 摘要:
    发行时间1988年
  • 时间: 2008/10/19 17:23:34 发布 | 2008/10/19 19:43:27 更新
  • 分类: 音乐  古典音乐 

Leonson

精华资源: 78

全部资源: 78

相关: 分享到新浪微博   转播到腾讯微博   分享到开心网   分享到人人   分享到QQ空间   订阅本资源RSS更新   美味书签  subtitle
该内容尚未提供权利证明,无法提供下载。
专辑英文名Brahms: Hungarian Dances Nos.1-21
专辑中文名勃拉姆斯:匈牙利舞曲
资源格式FLAC
版本(NAXOS)
发行时间1988年
地区德国
简介

IPB Image


唱片公司:HNH International Ltd. (NAXOS)
发行编号:8.550110
录音制式:DDD
专辑类型:Classical
资源出处:Leonson私人CD原版原抓

专辑介绍

勃拉姆斯的匈牙利舞曲是由21首“四手联弹”钢琴小曲所组成的曲集,虽然每一首乐曲的旋律和风格不尽相同,却都混合着匈牙利民族音乐和吉卜赛民族音乐的特色:节奏自由,旋律有各种各样的装饰,速度变化激烈,带有一定的即兴性;形式虽然没有统一的规定,但以三段体为最多。勃拉姆斯的全部匈牙利舞曲都可归为世界名曲,尤以前十首最受世人的青睐。

勃拉姆斯因为当时的小提琴演奏家雷梅尼的推荐而喜欢上匈牙利舞曲,这些匈牙利舞曲其实已揉进了吉普赛舞曲的元素。其中第五首是勃拉姆斯所有作品中最为流行的一首,其粗犷而豪放的旋律具有明显的匈牙利“查尔达什舞曲”的特征,给每一位听众都留下了深刻的印象。这里选用的是管弦乐曲改编版,更能突出原曲所要求的那种磅礴气势。乐曲的结构十分严谨,第一段为升f小调,具有民间舞蹈风格,速度变化上的自由体现出不同的情趣;乐曲的中段转为明快的升F大调,速度变化依然自由,单纯的旋律与和声所表现的是一种欢快的情绪;乐曲的第三段是第一段的严格再现。

这个由布达佩斯交响乐团演绎的《匈牙利舞曲》,之前已有乐友在VC上已发布过MP3格式的资源,这里发布的算作一个补充。


特别说明:
1、本人所上传的所有资源仅供试听之用。有需要的朋友请购买正版CD;
2、由于带宽限制,请大家在下载时给予充足的耐性;
3、如有乐友转发此帖至其它网站或论坛,请自觉注明原出处为www.VeryCD.com,并给出ED2K链接。
免拆播放利人利己
部分朋友下载完资源后,往往会将其解压以便播放。倒不是说这些人都没有共享精神,但受硬盘空间的限制,解压后尤其是较大的压缩包常常不得不删除或转移了。从而在一定程度上影响了资源的分流分享。也辜负了发布者将文件打包强制保源完整性的苦心。但实际上大家完全可以不解压直接播放压缩包音乐的。这样一来就能不拆包、不删除、不转移,既节约了空间,又不影响使用,还可以更好地保持完整源的数目以便分享给别人。这种利人利己的好事,何乐而不为呢?
方法1:Winmount可以将常用压缩格式ZIP/RAR等直接虚拟为光驱,轻松搞定压缩包,不需解压,直接使用压缩包中的文件。中文免费软件。在使用上比方法2灵活快捷,几乎感觉不到延迟,且用户如同操作自己的磁盘上其他文件一样轻松。推荐使用此方法。普通用户建议使用其官方绿色版Mini WinMount V0.4。Daemon Tools大家应该很熟悉吧?MiniWinMount使用上也就类似Daemon Tools那样把压缩包甚至是文件夹作为镜像载入,卸载,超级简单的。
方法2:Footbar2000可以直接播放压缩包内的文件。方法是在菜单选“文件”-“添加文件”,指向该压缩包;或者直接把压缩包拖进FB2000播放窗口。不过这样需要较大的内存占用。低配置的机器会比较吃力。

引用
LOG文件

Exact Audio Copy V0.99 prebeta 4 from 23. January 2008

EAC 抓取日志文件从19. 八月 2008, 15:28

Johannes Brahms / Hungarian Dances Nos 1-21

使用驱动器 :PIONEER DVD-RW DVR-112 Adapter: 3 ID: 0

读取模式 : 保护
使用精确流 : 是
废除音频缓冲 : 是
使用 C2 指针 : 否

读取偏移校正 : 48
读取 Lead-In 和 Lead-Out : 是
用静音填充抓取中丢失偏移的采样 : 是
去除首尾静音块 : 否
在 CRC 计算中使用了空样本 : 是
已用接口 : Win NT 及 2000 本地 Win32 接口

所用输出格式 : 用户定义的编码器
已选比特率 : 1024 kBit/s
质量 : 高
添加 ID3 标签 : 否
命令行压缩器 : C:\Program Files\Exact Audio Copy\FLAC\FLAC.EXE
附加命令行参数 : -6 -V -T "ARTIST=%a" -T "TITLE=%t" -T "ALBUM=%g" -T "DATE=%y" -T "TRACKNUMBER=%n" -T "GENRE=%m" -T "COMMENT=%e" %s -o %d


被抓轨 CD 的 TOC

音轨 | 开始 | 长度 | 起始扇区 | 结尾扇区
--------------------------------------------------
1 | 0:00.00 | 3:01.25 | 0 | 13599
2 | 3:01.25 | 2:33.00 | 13600 | 25074
3 | 5:34.25 | 2:19.00 | 25075 | 35499
4 | 7:53.25 | 4:35.00 | 35500 | 56124
5 | 12:28.25 | 2:17.00 | 56125 | 66399
6 | 14:45.25 | 3:25.00 | 66400 | 81774
7 | 18:10.25 | 1:37.00 | 81775 | 89049
8 | 19:47.25 | 2:57.00 | 89050 | 102324
9 | 22:44.25 | 1:29.00 | 102325 | 108999
10 | 24:13.25 | 1:47.00 | 109000 | 117024
11 | 26:00.25 | 3:21.00 | 117025 | 132099
12 | 29:21.25 | 2:24.00 | 132100 | 142899
13 | 31:45.25 | 1:46.00 | 142900 | 150849
14 | 33:31.25 | 1:36.00 | 150850 | 158049
15 | 35:07.25 | 2:08.00 | 158050 | 167649
16 | 37:15.25 | 2:32.00 | 167650 | 179049
17 | 39:47.25 | 3:07.00 | 179050 | 193074
18 | 42:54.25 | 1:26.00 | 193075 | 199524
19 | 44:20.25 | 2:01.00 | 199525 | 208599
20 | 46:21.25 | 2:40.00 | 208600 | 220599
21 | 49:01.25 | 1:22.45 | 220600 | 226794


范围状态及错误

已选择范围

文件名 F:\Emule\New Release\Ultimate Chopin\Johannes Brahms - Hungarian Dances Nos 1-21.wav

可疑位置 0:50:23

峰值电平 97.7 %
范围质量 99.9 %
复制 CRC A3123824
复制结束

出现错误


AccurateRip 概要

音轨 1 已正确抓取 (确认 2) [91BBE469]
音轨 2 已正确抓取 (确认 2) [1F0382A1]
音轨 3 已正确抓取 (确认 2) [403C4A0A]
音轨 4 已正确抓取 (确认 2) [B0969392]
音轨 5 已正确抓取 (确认 2) [4DAE944A]
音轨 6 已正确抓取 (确认 2) [8E282754]
音轨 7 已正确抓取 (确认 2) [219A0E0F]
音轨 8 已正确抓取 (确认 2) [A184350C]
音轨 9 已正确抓取 (确认 2) [A7179D2F]
音轨 10 已正确抓取 (确认 2) [825FC948]
音轨 11 已正确抓取 (确认 2) [B415CE82]
音轨 12 已正确抓取 (确认 2) [3C67C959]
音轨 13 已正确抓取 (确认 2) [5FF46C57]
音轨 14 已正确抓取 (确认 2) [2DD632DC]
音轨 15 已正确抓取 (确认 2) [71C0E49D]
音轨 16 已正确抓取 (确认 2) [0617E51E]
音轨 17 已正确抓取 (确认 2) [BD3D7092]
音轨 18 已正确抓取 (确认 2) [24B7F7A3]
音轨 19 已正确抓取 (确认 2) [C65BE532]
音轨 20 已正确抓取 (确认 2) [29B148AC]
音轨 21 无法精确校验 (确认 2) [9B435E8A], AccurateRip 返回 [B736AE0C]

20 音轨已被精确抓取
1 音轨校验不准确

某些音轨无法被精确验证

状态报告结尾



专辑曲目

01. No. 1 (orch. Brahms)
02. No. 2 (orch. Hallen)
03. No. 3 (orch. Brahms)
04. No. 4 (orch. Juon)
05. No. 5 (orch. Schmeling)
06. No. 6 (orch. Schmeling)
07. No. 7 (orch. Schmeling)
08. No. 8 (orch. Gal)
09. No. 9 (orch. Gal)
10. No. 10 (orch. Brahms)
11. No. 11 (orch. Parlow)
12. No. 12 (orch. Parlow)
13. No. 13 (orch. Parlow)
14. No. 14 (orch. Parlow)
15. No. 15 (orch. Parlow)
16. No. 16 (orch. Parlow)
17. No. 17 (orch. Dvorak)
18. No. 18 (orch. Dvorak)
19. No. 19 (orch. Dvorak)
20. No. 20 (orch. Dvorak)
21. No. 21 (orch. Dvorak)

正在读取……

这里是其它用户补充的资源(我也要补充):

FurElise 2009/08/05 18:41:07 补充
引用(Blauerschnee @ 2009-04-19, 09:18 AM) 引用(FurElise @ 2008-10-22, 10:10 PM) 听过钢琴版

该内容尚未提供权利证明,无法提供下载。
正在加载,请稍等...

点击查看所有47网友评论

 

(?) [公告]留口水、评论相关规则 | [活动]每日签到 轻松领取电驴经验

    小贴士:
  1. 类似“顶”、“沙发”之类没有营养的文字,对勤劳贡献的楼主来说是令人沮丧的反馈信息。
  2. 提问之前请再仔细看一遍楼主的说明,或许是您遗漏了。
  3. 勿催片。请相信驴友们对分享是富有激情的,如果确有更新版本,您一定能搜索到。
  4. 请勿到处挖坑绊人、招贴广告。既占空间让人厌烦,又没人会搭理,于人于己都无利。
  5. 如果您发现自己的评论不见了,请参考以上4条。