v

您的位置:VeryCD音乐古典音乐

音乐资源事务区


V.A. -《极致:贝多芬选集》(Ultimate Beethoven) DECCA极致系列 (5CD Box-set)[FLAC]

  • 状态: 精华资源
  • 摘要:
    发行时间2006年
  • 时间: 2008/10/12 15:15:07 发布 | 2008/10/16 17:12:57 更新
  • 分类: 音乐  古典音乐 

Leonson

精华资源: 78

全部资源: 78

相关: 分享到新浪微博   转播到腾讯微博   分享到开心网   分享到人人   分享到QQ空间   订阅本资源RSS更新   美味书签  subtitle
该内容尚未提供权利证明,无法提供下载。
专辑英文名Ultimate Beethoven
专辑中文名极致:贝多芬选集
艺术家V.A.
资源格式FLAC
版本 DECCA极致系列 (5CD Box-set)
发行时间2006年
地区英国
简介

IPB Image

盒装名称:Ultimate Beethoven, the essential masterpieces (5CD)
唱片公司:Decca
发行编号:475 8040 DB5
录音制式:DDD/ADD
专辑类型:Classical
CD编号:475 8041-45
资源出处:Leonson私人CD原版原抓

专辑介绍

关于DECCA的《Ultimate》极致系列

DECCA 《Ultimate》极致系列包括多套5CD一组的主题选集,着重地介绍了各个时代的大师们最有影响力、最广为流传的古典音乐作品,其中包括贝多芬、巴赫、肖邦、柴可夫斯基、莫扎特、舒伯特等的必听之作。此外,该系列还以不同体裁作为类别划分,加入了古典小提琴、大提琴、钢琴、钢琴协奏曲、休闲古典、巴洛克、歌剧等主题选集。虽然这个系列中某些选曲的录音年份有些久远,但演绎者中不乏宗师级的人物,故欣赏价值也是颇高的。全系列由环球公司下属的德国EDC压片生产,品质优良,而封面设计则简约而不失典雅。该系列比较适合初涉古典音乐的朋友欣赏、收藏,通过这套入门级的CD能对古典音乐有一个基本的、初步的认知和了解。而已是古典音乐爱好者的乐友,或许也能从中找到一些自己可能还没有听过的演绎版本。

如需要检索该系列各选集的下载地址,请参看【DECCA《极致》系列的下载地址列表】,地址如下:
http://www.VeryCD.com/groups/@g2121418/705001.topic


贝多芬简介

IPB Image

路德维希·凡·贝多芬(Ludwig Van Beethoven,1770-1827),德国最伟大的音乐家之一。出身于德国波恩的平民家庭,很早就显露了音乐上的才能,八岁开始登台演出。1792年到维也纳深造,艺术上进步飞快。贝多芬信仰共和,崇尚英雄,创作了有大量充满时代气息的优秀作品,如:交响曲《英雄》、《命运》;序曲《哀格蒙特》;钢琴奏鸣曲《悲怆》、《月光》、《暴风雨》、《热情》等等。一生坎坷,没有建立家庭。二十六岁时开始耳聋,晚年全聋,只能通过谈话册与人交谈。但孤寂的生活并没有使他沉默和隐退,在一切进步思想都遭禁止的封建复辟年代里,依然坚守“自由、平等”的政治信念,通过言论和作品,为共和理想奋臂呐喊,写下不朽名作《第九交响曲》。他的作品受十八世纪启蒙运动和德国狂飙突进运动的影响,个性鲜明,较前人有了很大的发展。在音乐表现上,他几乎涉及当时所有的音乐体裁;大大提高了钢琴的表现力,使之获得交响性的戏剧效果;又使交响曲成为直接反映社会变革的重要音乐形式。贝多芬集古典音乐的大成,同时开辟了浪漫时期音乐的道路,对世界音乐的发展有着举足轻重的作用,被尊称为“乐圣”。
更为详细的介绍请参看此网页:http://baike.baidu.com/view/3160.htm

部分作品简介

C小调第五交响曲《命运》
此曲完成于1807年末至1808年初,是贝多芬最为著名的作品之一。本曲声望之高,演出次数之多,可谓交响曲之冠。
贝多芬在交响曲第一乐章的开头,便写下一句引人深思的警语:“命运在敲门”,从而被引用为本交响曲具有吸引力的标题。作品的这一主题贯穿全曲,使人感受到一种无可言喻的感动与震撼。贝多芬在第三交响曲完成以前便已经有了创作本曲的灵感,一共花了五年的时间推敲、酝酿,才得以完成。乐曲体现了作者一生与命运搏斗的思想,“我要扼住命运的咽喉,他不能使我完全屈服”,这是一首英雄意志战胜宿命论、光明战胜黑暗的壮丽凯歌。恩格斯曾盛赞这部作品为最杰出的音乐作品。整部作品精炼、简洁,结构完整统一。
全曲共分四个乐章:第一乐章,灿烂的快板,C小调,2/4拍子。奏鸣曲形式。乐章的开始由单簧管与弦乐齐奏出著名的四个音动机,并发展为第一主题,即命运主题,极富男性粗壮的气息。通过圆号对第一主题的号角式变奏,引出明朗、抒情的第二主题。第二乐章,稍快的行板,降A大调,3/8拍子,自由变奏曲。第一主题抒情、安祥、沉思,由中提琴和大提琴奏出。与之对应的第二主题先由木管奏出,后由铜管乐器奏出豪迈的英雄凯旋进行曲,表现了战士们的信心和勇气。第三乐章,快板,C小调,3/4拍子。诙谐曲形式。在这一乐章中,命运主题的变奏依然凶险逼人,但在大提琴和低音提琴跃跃欲试的曲调后,乐队奏出旋风般的舞蹈主题,引出振奋人心的赋格曲段,象征着人民参加到与命运斗争的行列中,黑暗必将过去,曙光就在眼前。在低音乐器震撼人心的渐强声中,不间断地进入第四乐章。第四乐章,快板,C大调,4/4拍子。奏鸣曲式。乐章的主题是乐队以极大的音量全奏出辉煌而壮丽的凯歌,如长河般浩浩荡荡,表现了这一场与命运的斗争最终以光明彻底的胜利而告终。

F大调第六交响曲《田园》
本曲大约完成于1808年,是贝多芬的代表作之一,并由作曲者亲自命名为《田园交响曲》,是他少数的各乐章均有标题的作品之一,也是贝多芬九首交响乐作品中标题性最为明确的一部。此时的贝多芬双耳已经完全失聪,这部作品正表现了他在这种情况下对大自然的依恋之情,是一部体现回忆的作品。这部作品1808年在维也纳首演,由贝多芬亲自指挥,在首演节目单上,他写到:“乡村生活的回忆,写情多于写景”。整部作品细腻动人,朴实无华,宁静而安逸,与贝多芬的第五号交响曲同为世界上最受欢迎的交响曲之一。
作品共分五个乐章,其中第三、四、五乐章连续演奏:第一乐章,不太快的快板,表达了“初到乡村时的愉快感受”,F大调,2/4拍子,奏鸣曲式。由双簧管呈现出明亮的第一主题,充满着浓郁而清新的乡间气氛,使人们感受到贝多芬投身到大自然后的喜悦心情。第二乐章,很快的行板,描写的是“溪边小景”,降B大调,12/8拍子,奏鸣曲式。这是一个描写静观默想的乐章,在形如小溪潺潺流水的第二小提琴、中提琴与大提琴的伴奏下,第一小提琴所呈现的第一主题显得悠扬而且明亮、清澈。第三乐章,快板,“乡村欢乐的集会”,F大调,3/4拍子,诙谐曲。这个乐章的主题是如牧笛风格的旋律,单纯活泼,表现了欢笑的乡民来自四面八方,并跳起了快乐的舞蹈。第四乐章,快板,“暴风雨”,F小调,4/4拍子。在这一乐章中,雷雨由远而近,狂风骤起、雷电交加、大雨倾盆,整个大自然笼罩在恐怖的气氛中。接着,暴风雨很快停息,直接进入下一乐章。第五乐章,小快板,“牧歌,暴风雨过后欢乐和感激的心情”,F大调,6/8拍子,回旋的奏鸣曲式。乐章的主题恬静开阔,象牧人在田野中歌唱,表现了雨过天晴之后的美景。

D小调第九交响曲《合唱》
作品大约创作于1819至1824年间,是贝多芬全部音乐创作生涯的最高峰和总结。作品于1824年5月7日在维也纳首演,即获得巨大的成功,雷鸣般的掌声竟达五次之多。这部交响乐构思广阔,思想深刻,形象丰富多样,它扩大了交响乐的规模和范围,超出了当时的体裁和规范,变成由交响乐队、合唱队和独唱、重唱所表演的一部宏伟而充满哲理性和英雄性的壮丽颂歌。作者通过这部作品表达了人类寻求自由的斗争意志,并坚信这个斗争最后一定以人类的胜利而告终,人类必将获得欢乐和团结友爱。这部作品第四乐章的合唱部分是以德国著名诗人席勒的“欢乐颂”为歌词而谱曲的,也是本作品中最为著名的主题。从作品的酝酿到完成,第九交响曲倾尽了贝多芬数十年的心血,是其音乐生涯的登峰造极之作。全曲从头至尾的演奏时间至少需要一个小时以上,但并无任何冗长拖沓之感。
作品共分四个乐章:第一乐章,不太快的略呈庄严的快板,D小调,2/4拍子,奏鸣曲形式。第一主题严峻有力,表现了艰苦斗争的形象,充满了巨大的震撼力和悲壮的色彩,这一主题最开始在低沉压抑的气氛下由弦乐部分奏出,而后逐渐加强,直至整个乐队奏出威严有力,排山倒海式的全部主题。第二乐章,极活泼的快板,D小调,3/4拍子,庞大的诙谐曲式。贝多芬打破了古典交响乐中第二乐章为慢板的传统。这一乐章的主题明朗振奋,充满了前进的动力,具有精力充沛的奥地利民间舞曲的特征,但其中还带有不安的情绪。第三乐章,如歌的柔板,降B大调,4/4拍,不规则的变奏曲式。两个主题,其中第一主题充满了静观的沉思,具有强烈的抒情性和哲理性。第四乐章,急板,D大调,4/4拍。在主题“欢乐颂”开始之前,音乐经历了长时间的器乐部分演奏的痛苦经历,含有对前三个乐章的回忆。整个乐章的核心是合唱的“欢乐颂”主题,这是一首庞大的变奏曲,充满了庄严的宗教色彩,气势辉煌,是人声与交响乐队合作的典范之作。通过对这个主题的多次变奏,乐曲最后达到整个交响曲的高潮,也达到了贝多芬音乐创作的最高峰。乐章的重唱和独唱部分还充分发挥了四位演唱者各个音区的特色。

降E大调第五钢琴协奏曲《皇帝》
本曲是贝多芬所有的钢琴协奏曲作品中,规模最为庞大的一部,故常被人称为《“皇帝”协奏曲》。而事实上,本曲也确实具有堂堂王者风范。但是“皇帝”这一标题并不是贝多芬自己命名的,也不可能和某一位特定的“皇帝”有关,公认的说法是由于本曲在当时被誉为无可争议的“协奏曲之王”,故此得名,并沿用至今。在本曲中,作曲技巧炉火纯青的贝多芬,又设计出众多崭新的思路,整部作品在工稳的结构中蕴含着壮阔的波澜、变化无穷的旋律,尤其以主奏钢琴的花奏开始的第一乐章,一开始便给听众以极端宏伟、华丽的印象。
贝多芬自1808年开始着手创作此曲,并于第二年完成。当时由于拿破仑率领法军占领了维也纳,使得本曲迟迟不能上演。据说在法军四处作乱的时节,贝多芬曾遇见法军军官,他当即握紧拳头,咬牙切齿地说:“如果我对于战术也像对对位法一样有深入了解的话,非给你一点颜色看看不可!”直到1811年,本曲才在德国的莱比锡得以首次公演。当时的音乐杂志《大众音乐报》曾这样评价本曲:“毫无疑问,这是所有已经创作出来的协奏曲中最富创造力、最富想象力和最引人注目的作品,同时也是在技巧上最为艰深的一部。”
全曲共分三个乐章,其中第二、三乐章连续演奏:第一乐章,快板,降E大调,4/4拍子,协奏风奏鸣曲形式。主奏钢琴即以花奏方式弹奏出分解和弦,进而引出了管弦乐部分演奏的乐章主题,非常简洁而又华丽绚烂,此处可以看出贝多芬的作曲手法之精致。乐章经过高潮之后,在极强的兴奋状态中结束本乐章。第二乐章,稍快一些的慢板,B大调,4/4拍子,自由的变奏曲形式。和传统的钢琴协奏曲第二乐章一样,本乐章同为优美的徐缓乐章。乐章的主题似牧歌般悠扬、恬静,经过管弦乐部分对主题的充分演绎之后,主奏钢琴像编入万千光彩的绵绵音乐一般,持续奏出这一祈祷性的、淳净恬美的主题。第三乐章,回旋曲,快板,降E大调,6/8拍子。在第二乐章逐渐减弱之时,主奏钢琴就开始反复轻轻提示出第三乐章的主题,突然主奏钢琴以爆发般地,以无比猛烈的威力奏出辉煌的主题,标志着全曲进入了第三乐章。旋即由管弦乐对这一主题予以反复。主奏钢琴继而导出曲折的新主题,交响曲和协奏曲交相辉映,手法精致绝伦,充分反映出贝多芬超人的写作技巧。乐章结尾时速度再度转快,作最后冲刺的主奏钢琴猛然跃起,最后由管弦乐部分强而有力地结束全曲。

D大调小提琴协奏曲
本曲作于1806年,是贝多芬唯一的小提琴协奏曲作品,自古以来被誉为小提琴协奏曲之王。这首乐曲旋律柔美、格调高雅、规模宏大,颇具王者风范。然而,本曲在被誉为小提琴协奏曲之王前,也经过很长一段时间的考验。本曲初演以后,几乎没有人再对它回顾,本曲的华彩乐段,并不像钢琴协奏曲那样由贝多芬亲自谱写,而是留给各式各样的演奏者谱曲,其中较常采用的有约阿西姆、奥尔和克莱斯勒等的手笔。当年贝多芬作曲时,正值他与他的学生,匈牙利的伯爵小姐勃伦斯威克产生了深深的爱情,并在她家的庄园度过了快乐的夏天。他一生中这“最明朗的日子的香味”便渗透在贝多芬这部唯一的小提琴协奏曲中。
全曲共分三个乐章:第一乐章,从容的快板,D大调,4/4拍子,协奏风格的奏鸣曲形式。主部主题带有深切的探询意味,随后呈现的副部主题旋律明澈柔美,从容匀称,充满了温暖和喜悦,飘散出美丽花朵的芬芳。本乐章最后部分的华彩乐段是由不同的演奏家谱写的。第二乐章,抒情的慢板,G大调,4/4拍子,变奏曲式。优美的主题由加上弱音器的弦乐群单独呈示,充满舒缓恬淡的气氛。主奏小提琴以华彩的风格翩翩上升、下降后,旋律如歌般地呈现出来。第三乐章,回旋曲,快板,D大调,6/8拍子,回旋曲形式。主奏小提琴旋律给人以深刻的印象。在延长记号之后,主奏小提琴展现了它精彩灿烂的技巧,最后终于进入了炫耀琴技的华彩部分。此部分结束,音乐以回旋主题为基础,达到光华灿烂的高潮巅峰,结束全曲。

升C小调第十四钢琴奏鸣曲《月光》
此曲作于1801年。几乎没有一首名曲像这首奏鸣曲一样,因“月光”这一俗称而名满天下、家喻户晓。《月光》这一名称据说是源于德国诗人路德维希·雷尔施塔布(1799-1860)形容这首乐曲的第一乐章为“如在瑞士琉森湖那月光闪耀的湖面上,一只摇荡的小舟一样”。其实,贝多芬自己曾提到过,本曲是“幻想曲式的奏鸣曲”。
全曲共分三个乐章:第一乐章,持续的慢板,升C小调,2/2拍子,三段体,为奏鸣曲形式的幻想性的、即兴性的柔和抒情曲。一反钢琴协奏曲的传统形式,贝多芬在本曲的首乐章中运用了慢板,徐缓的旋律中流露出一种淡淡的伤感。第二乐章,行板,降D大调,3/4拍子,三段体。贝多芬在这一乐章中,又一次“反其道而行之”,改变了传统钢琴协奏曲中一向作为慢板乐章的第二乐章,而采取了十分轻快的节奏,短小精悍而又优美动听的旋律与第一乐章形成鲜明的对比。本乐章起到了十分明显的“承前启后”作用,第一乐章与第三乐章在此衔接得非常完美。第三乐章,急板,升C小调,4/4拍子。本乐章拥有精巧的结构与美妙的钢琴性效果和充实的音乐内容,急风暴雨般的旋律中包含着各种复杂的钢琴技巧,表达出一种愤懑的情绪和高昂的斗志。直到全曲结束之前,还是一种作“最后冲击”的态势。

(资料来源:洪恩在线 | 感谢资料提供人)


特别说明:
1、本人所上传的所有资源仅供试听之用。有需要的朋友请购买正版CD;
2、“专辑曲目”里ADD/DDD后面的年份均为录音年份。中文曲名仅供参考,如有谬误请予指正;
3、由于带宽限制,请大家在下载时给予充足的耐性。对于多碟套装资源,视分流情况,基本上每天或隔天更新一张CD,直至更新完毕;
4、如有乐友转发此帖至其它网站或论坛,请自觉注明原出处为www.VeryCD.com,并给出ED2K链接。
免拆播放利人利己
部分朋友下载完资源后,往往会将其解压以便播放。倒不是说这些人都没有共享精神,但受硬盘空间的限制,解压后尤其是较大的压缩包常常不得不删除或转移了。从而在一定程度上影响了资源的分流分享。也辜负了发布者将文件打包强制保源完整性的苦心。但实际上大家完全可以不解压直接播放压缩包音乐的。这样一来就能不拆包、不删除、不转移,既节约了空间,又不影响使用,还可以更好地保持完整源的数目以便分享给别人。这种利人利己的好事,何乐而不为呢?
方法1:Winmount可以将常用压缩格式ZIP/RAR等直接虚拟为光驱,轻松搞定压缩包,不需解压,直接使用压缩包中的文件。中文免费软件。在使用上比方法2灵活快捷,几乎感觉不到延迟,且用户如同操作自己的磁盘上其他文件一样轻松。推荐使用此方法。普通用户建议使用其官方绿色版Mini WinMount V0.4。Daemon Tools大家应该很熟悉吧?MiniWinMount使用上也就类似Daemon Tools那样把压缩包甚至是文件夹作为镜像载入,卸载,超级简单的。
方法2:Footbar2000可以直接播放压缩包内的文件。方法是在菜单选“文件”-“添加文件”,指向该压缩包;或者直接把压缩包拖进FB2000播放窗口。不过这样需要较大的内存占用。低配置的机器会比较吃力。

引用
LOG文件

CD1...................................CD1

Exact Audio Copy V0.99 prebeta 4 from 23. January 2008

EAC 抓取日志文件从11. 九月 2008, 13:17

Royal Concertgebouw Orchestra - Haitink / Ultimate Beethoven CD1

使用驱动器 :PIONEER DVD-RW DVR-112 Adapter: 3 ID: 0

读取模式 : 保护
使用精确流 : 是
废除音频缓冲 : 是
使用 C2 指针 : 否

读取偏移校正 : 48
读取 Lead-In 和 Lead-Out : 是
用静音填充抓取中丢失偏移的采样 : 是
去除首尾静音块 : 否
在 CRC 计算中使用了空样本 : 是
已用接口 : Win NT 及 2000 本地 Win32 接口

所用输出格式 : 用户定义的编码器
已选比特率 : 1024 kBit/s
质量 : 高
添加 ID3 标签 : 否
命令行压缩器 : C:\Program Files\Exact Audio Copy\FLAC\FLAC.EXE
附加命令行参数 : -6 -V -T "ARTIST=%a" -T "TITLE=%t" -T "ALBUM=%g" -T "DATE=%y" -T "TRACKNUMBER=%n" -T "GENRE=%m" -T "COMMENT=%e" %s -o %d


被抓轨 CD 的 TOC

音轨 | 开始 | 长度 | 起始扇区 | 结尾扇区
--------------------------------------------------
1 | 0:00.33 | 7:10.00 | 33 | 32282
2 | 7:10.33 | 10:02.00 | 32283 | 77432
3 | 17:12.33 | 5:08.00 | 77433 | 100532
4 | 22:20.33 | 9:07.00 | 100533 | 141557
5 | 31:27.33 | 12:09.00 | 141558 | 196232
6 | 43:36.33 | 12:45.00 | 196233 | 253607
7 | 56:21.33 | 5:58.12 | 253608 | 280469
8 | 62:19.45 | 3:38.63 | 280470 | 296882
9 | 65:58.33 | 9:31.00 | 296883 | 339707


范围状态及错误

已选择范围

文件名 F:\Emule\New Release\Ultimate Beethoven\Royal Concertgebouw Orchestra - Haitink - Ultimate Beethoven CD1.wav

峰值电平 99.5 %
范围质量 100.0 %
复制 CRC BCA569EC
复制成功

没有错误发生


AccurateRip 概要

音轨 1 数据库中未见
音轨 2 数据库中未见
音轨 3 数据库中未见
音轨 4 数据库中未见
音轨 5 数据库中未见
音轨 6 数据库中未见
音轨 7 数据库中未见
音轨 8 数据库中未见
音轨 9 数据库中未见

没有任何音轨出现在 AccurateRip 数据库中

状态报告结尾

CD2...................................CD2

Exact Audio Copy V0.99 prebeta 4 from 23. January 2008

EAC 抓取日志文件从11. 九月 2008, 13:57

Georg Solti / Ultimate Beethoven CD2

使用驱动器 :PIONEER DVD-RW DVR-112 Adapter: 3 ID: 0

读取模式 : 保护
使用精确流 : 是
废除音频缓冲 : 是
使用 C2 指针 : 否

读取偏移校正 : 48
读取 Lead-In 和 Lead-Out : 是
用静音填充抓取中丢失偏移的采样 : 是
去除首尾静音块 : 否
在 CRC 计算中使用了空样本 : 是
已用接口 : Win NT 及 2000 本地 Win32 接口

所用输出格式 : 用户定义的编码器
已选比特率 : 1024 kBit/s
质量 : 高
添加 ID3 标签 : 否
命令行压缩器 : C:\Program Files\Exact Audio Copy\FLAC\FLAC.EXE
附加命令行参数 : -6 -V -T "ARTIST=%a" -T "TITLE=%t" -T "ALBUM=%g" -T "DATE=%y" -T "TRACKNUMBER=%n" -T "GENRE=%m" -T "COMMENT=%e" %s -o %d


被抓轨 CD 的 TOC

音轨 | 开始 | 长度 | 起始扇区 | 结尾扇区
--------------------------------------------------
1 | 0:00.33 | 18:12.32 | 33 | 81964
2 | 18:12.65 | 11:52.08 | 81965 | 135372
3 | 30:04.73 | 19:59.67 | 135373 | 225364
4 | 50:04.65 | 24:40.70 | 225365 | 336434


范围状态及错误

已选择范围

文件名 F:\Emule\New Release\Ultimate Beethoven\Georg Solti - Ultimate Beethoven CD2.wav

峰值电平 97.7 %
范围质量 100.0 %
复制 CRC D98D179A
复制成功

没有错误发生


AccurateRip 概要

音轨 1 无法精确校验 (确认 6) [5EC1D0BE], AccurateRip 返回 [9D301BE8]
音轨 2 无法精确校验 (确认 6) [3F3A9A93], AccurateRip 返回 [EB7AA7E8]
音轨 3 无法精确校验 (确认 5) [3401A192], AccurateRip 返回 [302825B6]
音轨 4 无法精确校验 (确认 3) [384FB676], AccurateRip 返回 [6C18E333]

没有音轨被精确验证
你可能遇到在数据库中的一词多义

状态报告结尾

CD3...................................CD3

Exact Audio Copy V0.99 prebeta 4 from 23. January 2008

EAC 抓取日志文件从11. 九月 2008, 17:19

Vladimir Ashkenazy / Ultimate Beethoven 3

使用驱动器 :PIONEER DVD-RW DVR-112 Adapter: 3 ID: 0

读取模式 : 保护
使用精确流 : 是
废除音频缓冲 : 是
使用 C2 指针 : 否

读取偏移校正 : 48
读取 Lead-In 和 Lead-Out : 是
用静音填充抓取中丢失偏移的采样 : 是
去除首尾静音块 : 否
在 CRC 计算中使用了空样本 : 是
已用接口 : Win NT 及 2000 本地 Win32 接口

所用输出格式 : 用户定义的编码器
已选比特率 : 1024 kBit/s
质量 : 高
添加 ID3 标签 : 否
命令行压缩器 : C:\Program Files\Exact Audio Copy\FLAC\FLAC.EXE
附加命令行参数 : -6 -V -T "ARTIST=%a" -T "TITLE=%t" -T "ALBUM=%g" -T "DATE=%y" -T "TRACKNUMBER=%n" -T "GENRE=%m" -T "COMMENT=%e" %s -o %d


被抓轨 CD 的 TOC

音轨 | 开始 | 长度 | 起始扇区 | 结尾扇区
--------------------------------------------------
1 | 0:00.33 | 20:09.30 | 33 | 90737
2 | 20:09.63 | 5:48.52 | 90738 | 116889
3 | 25:58.40 | 10:17.03 | 116890 | 163167
4 | 36:15.43 | 20:40.30 | 163168 | 256197
5 | 56:55.73 | 8:08.32 | 256198 | 292829
6 | 65:04.30 | 11:11.25 | 292830 | 343179


范围状态及错误

已选择范围

文件名 F:\Emule\New Release\Ultimate Beethoven\Vladimir Ashkenazy - Ultimate Beethoven 3.wav

峰值电平 99.4 %
范围质量 100.0 %
复制 CRC 65EEB710
复制成功

没有错误发生


AccurateRip 概要

音轨 1 数据库中未见
音轨 2 数据库中未见
音轨 3 数据库中未见
音轨 4 数据库中未见
音轨 5 数据库中未见
音轨 6 数据库中未见

没有任何音轨出现在 AccurateRip 数据库中

状态报告结尾

CD4...................................CD4

Exact Audio Copy V0.99 prebeta 4 from 23. January 2008

EAC 抓取日志文件从11. 九月 2008, 18:33

Henryk Szeryng / Ultimate Beethoven CD4

使用驱动器 :PIONEER DVD-RW DVR-112 Adapter: 3 ID: 0

读取模式 : 保护
使用精确流 : 是
废除音频缓冲 : 是
使用 C2 指针 : 否

读取偏移校正 : 48
读取 Lead-In 和 Lead-Out : 是
用静音填充抓取中丢失偏移的采样 : 是
去除首尾静音块 : 否
在 CRC 计算中使用了空样本 : 是
已用接口 : Win NT 及 2000 本地 Win32 接口

所用输出格式 : 用户定义的编码器
已选比特率 : 1024 kBit/s
质量 : 高
添加 ID3 标签 : 否
命令行压缩器 : C:\Program Files\Exact Audio Copy\FLAC\FLAC.EXE
附加命令行参数 : -6 -V -T "ARTIST=%a" -T "TITLE=%t" -T "ALBUM=%g" -T "DATE=%y" -T "TRACKNUMBER=%n" -T "GENRE=%m" -T "COMMENT=%e" %s -o %d


被抓轨 CD 的 TOC

音轨 | 开始 | 长度 | 起始扇区 | 结尾扇区
--------------------------------------------------
1 | 0:00.33 | 26:06.00 | 33 | 117482
2 | 26:06.33 | 9:32.50 | 117483 | 160432
3 | 35:39.08 | 10:23.25 | 160433 | 207182
4 | 46:02.33 | 8:05.00 | 207183 | 243557
5 | 54:07.33 | 9:27.00 | 243558 | 286082


范围状态及错误

已选择范围

文件名 F:\Emule\New Release\Ultimate Beethoven\Henryk Szeryng - Ultimate Beethoven CD4.wav

可疑位置 1:03:34

峰值电平 98.6 %
范围质量 99.9 %
复制 CRC E718E7C2
复制结束

出现错误


AccurateRip 概要

音轨 1 无法精确校验 (确认 1) [9D918654], AccurateRip 返回 [07611AE9]
音轨 2 无法精确校验 (确认 1) [3BFC40FB], AccurateRip 返回 [A2CBFB12]
音轨 3 无法精确校验 (确认 1) [B37C81C7], AccurateRip 返回 [90F32B82]
音轨 4 无法精确校验 (确认 1) [71510F87], AccurateRip 返回 [A5E807D2]
音轨 5 无法精确校验 (确认 1) [990C011E], AccurateRip 返回 [16476E79]

没有音轨被精确验证

状态报告结尾

CD5...................................CD5

Exact Audio Copy V0.99 prebeta 4 from 23. January 2008

EAC 抓取日志文件从12. 九月 2008, 11:24

Claudio Arrau / Ultimate Beethoven CD5

使用驱动器 :PIONEER DVD-RW DVR-112 Adapter: 3 ID: 0

读取模式 : 保护
使用精确流 : 是
废除音频缓冲 : 是
使用 C2 指针 : 否

读取偏移校正 : 48
读取 Lead-In 和 Lead-Out : 是
用静音填充抓取中丢失偏移的采样 : 是
去除首尾静音块 : 否
在 CRC 计算中使用了空样本 : 是
已用接口 : Win NT 及 2000 本地 Win32 接口

所用输出格式 : 用户定义的编码器
已选比特率 : 1024 kBit/s
质量 : 高
添加 ID3 标签 : 否
命令行压缩器 : C:\Program Files\Exact Audio Copy\FLAC\FLAC.EXE
附加命令行参数 : -6 -V -T "ARTIST=%a" -T "TITLE=%t" -T "ALBUM=%g" -T "DATE=%y" -T "TRACKNUMBER=%n" -T "GENRE=%m" -T "COMMENT=%e" %s -o %d


被抓轨 CD 的 TOC

音轨 | 开始 | 长度 | 起始扇区 | 结尾扇区
--------------------------------------------------
1 | 0:00.33 | 9:09.25 | 33 | 41232
2 | 9:09.58 | 6:20.60 | 41233 | 69792
3 | 15:30.43 | 4:36.65 | 69793 | 90557
4 | 20:07.33 | 11:16.00 | 90558 | 141257
5 | 31:23.33 | 7:18.42 | 141258 | 174149
6 | 38:42.00 | 8:20.70 | 174150 | 211719
7 | 47:02.70 | 6:46.53 | 211720 | 242222
8 | 53:49.48 | 2:26.27 | 242223 | 253199
9 | 56:16.00 | 7:48.33 | 253200 | 288332


范围状态及错误

已选择范围

文件名 F:\Emule\New Release\Ultimate Beethoven\Claudio Arrau - Ultimate Beethoven CD5.wav

峰值电平 99.6 %
范围质量 100.0 %
复制 CRC 97C711D1
复制成功

没有错误发生


AccurateRip 概要

音轨 1 无法精确校验 (确认 4) [770668BA], AccurateRip 返回 [323FF01F]
音轨 2 无法精确校验 (确认 4) [5B6240BF], AccurateRip 返回 [214745CD]
音轨 3 已正确抓取 (确认 2) [3D365CAB]
音轨 4 无法精确校验 (确认 4) [BFA76896], AccurateRip 返回 [23458E27]
音轨 5 无法精确校验 (确认 4) [ABE0CE8B], AccurateRip 返回 [85A01F06]
音轨 6 无法精确校验 (确认 4) [160E0F3B], AccurateRip 返回 [158FDB54]
音轨 7 无法精确校验 (确认 4) [4682C428], AccurateRip 返回 [28547438]
音轨 8 无法精确校验 (确认 4) [FC2B4E24], AccurateRip 返回 [E9C7C816]
音轨 9 无法精确校验 (确认 4) [FBF04E75], AccurateRip 返回 [5594980A]

1 音轨已被精确抓取
8 音轨校验不准确

某些音轨无法被精确验证

状态报告结尾



专辑曲目

CD1. Ultimate Beethoven 1: Symphonies Nos.5 & 6
极致 - 贝多芬选集CD1:第五、第六交响曲

Ludwig van Beethoven (1770 - 1827)

Symphony No.5 in C minor, Op.67
C小调第五交响曲, Op.67
01. 1. Allegro con brio
02. 2. Andante con moto
03. 3. Allegro
04. 4. Allegro

Symphony No.6 in F, Op.68 "Pastoral"
F大调第六交响曲“田园”, Op.68
05. 1. Erwachen heiterer Empfindungen bei der Ankunft auf dem Lande: Allegro ma non troppo
06. 2. Szene am Bach: (Andante molto mosso)
07. 3. Lustiges Zusammensein der Landleute (Allegro)
08. 4. Gewitter, Sturm (Allegro)
09. 5. Hirtengesang. Frohe und dankbare Gefühle nach dem Sturm (Allegretto)

- Royal Concertgebouw Orchestra / Bernard Haitink (conductor) / DDD 1987 (No.5), 1988 (No.6)
- 阿姆斯特丹皇家音乐厅管弦乐团 - 指挥:海廷克

CD2. Ultimate Beethoven 2: Symphony No.9
极致 - 贝多芬选集CD2:第九交响曲

Ludwig van Beethoven (1770 - 1827)

Symphony No.9 in D minor, Op.125 "Choral"
D小调第九交响曲“合唱”, Op.125
01. 1. Allegro ma non troppo, un poco maestoso
02. 2. Molto vivace
03. 3. Adagio molto e cantabile
04. 4. Presto - Allegro assai

- Jessye Norman (soprano) / Reinhild Runkel (contralto) / Robert Schunk (tenor) / Hans Sotin (bass) / Chicago Symphony Orchestra and Chorus / Sir Georg Solti (conductor) / DDD: 1987
- 女高音:诺曼 - 女低音:栾戈尔 - 男高音:尚克 - 男低音:索庭 - 芝加哥交响乐团及合唱团 - 指挥:索尔蒂

CD3. Ultimate Beethoven 3: Piano Concertos Nos.4 & 5
极致 - 贝多芬选集CD3:第四、第五钢琴协奏曲

Ludwig van Beethoven (1770 - 1827)

Piano Concerto No.4 in G, Op.58
G大调第四钢琴协奏曲, Op.58
01. 1. Allegro moderato
02. 2. Andante con moto
03. 3. Rondo (Vivace)

Piano Concerto No.5 in E flat major Op.73 "Emperor"
降E大调第五钢琴协奏曲“皇帝”, Op.73
04. 1. Allegro
05. 2. Adagio un poco mosso
06. Rondo (Allegro)

- Vladimir Ashkenazy (piano) / Wiener Philharmoniker / Zubin Mehta (conductor) / DDD 1984
- 钢琴演奏:阿什肯纳济 - 维也纳爱乐乐团 - 指挥:梅塔

CD4. Ultimate Beethoven 4: Violin Concerto | Violin Romances
极致 - 贝多芬选集CD4:小提琴协奏曲、两首浪漫曲

Ludwig van Beethoven (1770 - 1827)

Violin Concerto in D, Op.61
D大调小提琴协奏曲, Op.61
(Cadenzas by Joseph Joachim - 华彩乐段:约瑟夫·约阿希姆)
01. 1. Allegro ma non troppo
02. 2. Larghetto -
03. 3. Allegro

04. Violin Romance No.1 in G major, Op.40
G大调第一小提琴浪漫曲, Op.40

05. Violin Romance No.2 in F major, Op.50
F大调第二小提琴浪漫曲, Op.50

- Henryk Szeryng (violin) / Royal Concertgebouw Orchestra / Bernard Haitink (conductor) / ADD 1971 (04, 05), 1974 (01-03)
- 小提琴演奏:谢霖 - 阿姆斯特丹皇家音乐厅管弦乐团 - 指挥:海廷克

CD5. Ultimate Beethoven 5: Piano Sonatas
极致 - 贝多芬选集CD5:钢琴奏鸣曲

Ludwig van Beethoven (1770 - 1827)

Piano Sonata No.8 in C minor, Op.13 "Pathétique"
C小调第八号钢琴奏鸣曲“悲怆”, Op.13
01. 1. Grave - Allegro di molto e con brio
02. 2. Adagio cantabile
03. 3. Rondo (Allegro)

Piano Sonata No.23 in F minor, Op.57 "Appassionata"
F小调第二十三号钢琴奏鸣曲“热情”, Op.57
04. 1. Allegro assai
05. 2. Andante con moto
06. 3. Allegro ma non troppo

Piano Sonata No.14 in C sharp minor, Op.27 No.2 "Moonlight"
升C小调第十四号钢琴奏鸣曲“月光”, Op.27/2
07. 1. Adagio sostenuto
08. 2. Allegretto
09. 3. Presto agitato

- Claudio Arrau (piano) / ADD 1964 (No.8), 1966 (No.14), 1967 (No.23)
- 钢琴演奏:阿劳

正在读取……

这里是其它用户补充的资源(我也要补充):

暂无补充资源
正在加载,请稍等...

点击查看所有152网友评论

 

(?) [公告]留口水、评论相关规则 | [活动]每日签到 轻松领取电驴经验

    小贴士:
  1. 类似“顶”、“沙发”之类没有营养的文字,对勤劳贡献的楼主来说是令人沮丧的反馈信息。
  2. 提问之前请再仔细看一遍楼主的说明,或许是您遗漏了。
  3. 勿催片。请相信驴友们对分享是富有激情的,如果确有更新版本,您一定能搜索到。
  4. 请勿到处挖坑绊人、招贴广告。既占空间让人厌烦,又没人会搭理,于人于己都无利。
  5. 如果您发现自己的评论不见了,请参考以上4条。