v

您的位置:VeryCD音乐其它音乐

音乐资源事务区


Various Artists -《2008第12届广州高级音响展HIFI珍藏版CD》(2008 Guangzhou High-end Audio Visual Show)[FLAC]

  • 状态: 精华资源
  • 摘要:
    发行时间2008年
  • 时间: 2008/09/21 18:00:57 发布 | 2008/09/21 22:13:44 更新
  • 分类: 音乐  其它音乐 

Leonson

精华资源: 78

全部资源: 78

相关: 分享到新浪微博   转播到腾讯微博   分享到开心网   分享到人人   分享到QQ空间   订阅本资源RSS更新   美味书签  subtitle
该内容尚未提供权利证明,无法提供下载。
专辑中文名2008第12届广州高级音响展HIFI珍藏版CD
专辑英文名2008 Guangzhou High-end Audio Visual Show
艺术家Various Artists
版本[FLAC]
发行时间2008年
地区大陆
简介

IPB Image

资源出处:Leonson私人CD原版原抓

专辑介绍

第12届广州音响展从9月19日开始进行,至今天下午圆满结束。三天的展期吸引了不少广州及珠三角地区的音响器材发烧友前往参观,期间多个发烧器材的代理商连轴现场演示其最新产品,某些展厅的参观者人满为患,工作人员不得不采取分流措施让观众分批进场。

此次音响展以器材展示为主,CD唱片的销售仅限制在一个展厅里,但国内的很多唱片公司也参加了。在次将音响展赠送的CD传上来让各位分享,希望大家喜欢。


特别说明:

由于带宽限制,请大家在下载时给予充足的耐性;
本人所发布的任何资源仅供试听之用。有需要的朋友请购买正版CD;
如有乐友转发此帖至其它网站或论坛,请自觉注明原出处为www.VeryCD.com,并给出ED2K链接。
免拆播放利人利己
部分朋友下载完资源后,往往会将其解压以便播放。倒不是说这些人都没有共享精神,但受硬盘空间的限制,解压后尤其是较大的压缩包常常不得不删除或转移了。从而在一定程度上影响了资源的分流分享。也辜负了发布者将文件打包强制保源完整性的苦心。但实际上大家完全可以不解压直接播放压缩包音乐的。这样一来就能不拆包、不删除、不转移,既节约了空间,又不影响使用,还可以更好地保持完整源的数目以便分享给别人。这种利人利己的好事,何乐而不为呢?
方法1:Winmount可以将常用压缩格式ZIP/RAR等直接虚拟为光驱,轻松搞定压缩包,不需解压,直接使用压缩包中的文件。中文免费软件。在使用上比方法2灵活快捷,几乎感觉不到延迟,且用户如同操作自己的磁盘上其他文件一样轻松。推荐使用此方法。普通用户建议使用其官方绿色版Mini WinMount V0.4。Daemon Tools大家应该很熟悉吧?MiniWinMount使用上也就类似Daemon Tools那样把压缩包甚至是文件夹作为镜像载入,卸载,超级简单的。
方法2:Footbar2000可以直接播放压缩包内的文件。方法是在菜单选“文件”-“添加文件”,指向该压缩包;或者直接把压缩包拖进FB2000播放窗口。不过这样需要较大的内存占用。低配置的机器会比较吃力。

引用
LOG文件

Exact Audio Copy V0.99 prebeta 4 from 23. January 2008

EAC 抓取日志文件从21. 九月 2008, 16:57

Unknown Artist / Unknown Title

使用驱动器 :PIONEER DVD-RW DVR-112 Adapter: 3 ID: 0

读取模式 : 保护
使用精确流 : 是
废除音频缓冲 : 是
使用 C2 指针 : 否

读取偏移校正 : 48
读取 Lead-In 和 Lead-Out : 是
用静音填充抓取中丢失偏移的采样 : 是
去除首尾静音块 : 否
在 CRC 计算中使用了空样本 : 是
已用接口 : Win NT 及 2000 本地 Win32 接口

所用输出格式 : 用户定义的编码器
已选比特率 : 1024 kBit/s
质量 : 高
添加 ID3 标签 : 否
命令行压缩器 : C:\Program Files\Exact Audio Copy\FLAC\FLAC.EXE
附加命令行参数 : -6 -V -T "ARTIST=%a" -T "TITLE=%t" -T "ALBUM=%g" -T "DATE=%y" -T "TRACKNUMBER=%n" -T "GENRE=%m" -T "COMMENT=%e" %s -o %d


被抓轨 CD 的 TOC

音轨 | 开始 | 长度 | 起始扇区 | 结尾扇区
--------------------------------------------------
1 | 0:00.00 | 2:47.15 | 0 | 12539
2 | 2:47.15 | 4:25.15 | 12540 | 32429
3 | 7:12.30 | 1:37.51 | 32430 | 39755
4 | 8:50.06 | 2:51.12 | 39756 | 52592
5 | 11:41.18 | 3:49.42 | 52593 | 69809
6 | 15:30.60 | 3:42.39 | 69810 | 86498
7 | 19:13.24 | 2:36.48 | 86499 | 98246
8 | 21:49.72 | 3:09.09 | 98247 | 112430
9 | 24:59.06 | 2:51.45 | 112431 | 125300
10 | 27:50.51 | 3:38.21 | 125301 | 141671
11 | 31:28.72 | 2:36.27 | 141672 | 153398
12 | 34:05.24 | 4:08.66 | 153399 | 172064
13 | 38:14.15 | 4:52.06 | 172065 | 193970
14 | 43:06.21 | 5:48.06 | 193971 | 220076
15 | 48:54.27 | 3:16.18 | 220077 | 234794
16 | 52:10.45 | 5:03.15 | 234795 | 257534
17 | 57:13.60 | 5:45.09 | 257535 | 283418
18 | 62:58.69 | 2:24.48 | 283419 | 294266


范围状态及错误

已选择范围

文件名 F:\Emule\New Release\Unknown Artist - Unknown Title.wav

峰值电平 100.0 %
范围质量 100.0 %
复制 CRC E2233A87
复制成功

没有错误发生


AccurateRip 概要

音轨 1 数据库中未见
音轨 2 数据库中未见
音轨 3 数据库中未见
音轨 4 数据库中未见
音轨 5 数据库中未见
音轨 6 数据库中未见
音轨 7 数据库中未见
音轨 8 数据库中未见
音轨 9 数据库中未见
音轨 10 数据库中未见
音轨 11 数据库中未见
音轨 12 数据库中未见
音轨 13 数据库中未见
音轨 14 数据库中未见
音轨 15 数据库中未见
音轨 16 数据库中未见
音轨 17 数据库中未见
音轨 18 数据库中未见

没有任何音轨出现在 AccurateRip 数据库中

状态报告结尾



专辑曲目

01. 拿破仑进行曲(选自《2008维也纳新年音乐会》) - 演奏:维也纳爱乐乐团 / 指挥:乔治·普莱德尔
02. 忘记你(选自《爱在何方》) - 演唱:童丽
03. 东流(选自《赤壁怀古》) - 古筝演奏:李炜
04. 相思成习(选自《1970-2005HIFI真空管35年》) - 演唱:当·威廉姆斯
05. 莫斯科印象 (选自《帕布罗·萨拉萨蒂:幻想协奏曲》)- 小提琴:杨天娲 / 钢琴:马库斯·哈杜拉
06. 靠近你(选自《岁月留声》) - 演唱:芭比·珍翠
07. 瑞典狂想曲(选自《木管三重奏:最后的华尔兹》) - 演奏:陈擎、孙迪、李娟
08. 遥远寄相思(选自《老情歌》) - 演唱:费玉清
09. 约瑟夫·苏克:诙谐曲(选自《琴圣》) - 小提琴演奏:鲁杰夫·里奇
10. 水兵梦里海蓝蓝(选自《青燕子·民歌情》) - 演唱:许岚岚、马小倩、刘德丽、方晓青
11. 帝国皇冠节选(选自《帝国皇冠》) - 演奏:美国达拉斯铜管交响乐团 / 指挥:杰里·祖金
12. 渔家四季尽春光(选自《红英与唐彪:民歌对唱》) - 演唱: 黄红英、唐彪
13. 花儿为什么这样红(选自《映山红》) - 小提琴演奏:紫亮
14. 满江红(选自《伶歌》) - 演唱:关栋天 / 伴奏:中国交响乐团、爱乐乐团
15. 我心深处(选自《情迷夜香港》) - 口琴演奏:邦菲利澳
16. 福气(选自《相思泪》) - 演唱:童丽
17. 波斯市场(选自《波斯市场》) - 演奏:爱乐乐团 / 安布里西安合唱团 / 指挥:兰贝里奇
18. 喜洋洋(选自《无比传真》) - 二胡独奏:朱昌耀 / 江苏省歌舞团民族乐团

正在读取……

这里是其它用户补充的资源(我也要补充):

暂无补充资源
正在加载,请稍等...

点击查看所有66网友评论

 

(?) [公告]留口水、评论相关规则 | [活动]每日签到 轻松领取电驴经验

    小贴士:
  1. 类似“顶”、“沙发”之类没有营养的文字,对勤劳贡献的楼主来说是令人沮丧的反馈信息。
  2. 提问之前请再仔细看一遍楼主的说明,或许是您遗漏了。
  3. 勿催片。请相信驴友们对分享是富有激情的,如果确有更新版本,您一定能搜索到。
  4. 请勿到处挖坑绊人、招贴广告。既占空间让人厌烦,又没人会搭理,于人于己都无利。
  5. 如果您发现自己的评论不见了,请参考以上4条。