v

您的位置:VeryCD音乐古典音乐

音乐资源事务区


V.A. -《极致:巴洛克选集》(Ultimate Baroque) DECCA极致系列 (5CD Box-set)[FLAC]

  • 状态: 精华资源
  • 摘要:
    发行时间2006年
  • 时间: 2008/09/14 15:43:51 发布 | 2008/09/19 15:02:03 更新
  • 分类: 音乐  古典音乐 

Leonson

精华资源: 78

全部资源: 78

相关: 分享到新浪微博   转播到腾讯微博   分享到开心网   分享到人人   分享到QQ空间   订阅本资源RSS更新   美味书签  subtitle
该内容尚未提供权利证明,无法提供下载。
专辑英文名Ultimate Baroque
专辑中文名极致:巴洛克选集
艺术家V.A.
资源格式FLAC
版本 DECCA极致系列 (5CD Box-set)
发行时间2006年
地区英国
简介

IPB Image

盒装名称:Ultimate Baroque, the essential masterpieces (5CD)
唱片公司:Decca
发行编号:475 8073 DB5
录音制式:ADD/DDD
专辑类型:Classical
CD编号:475 8074-78
资源出处:Leonson私人CD原版原抓

专辑介绍

关于DECCA的《Ultimate》系列

DECCA 《Ultimate》系列包括多套5CD一组的主题选集,着重地介绍了各个时代的大师们最有影响力、最广为流传的古典音乐作品,其中包括贝多芬、巴赫、肖邦、柴可夫斯基、莫扎特、舒伯特等的必听之作。此外,该系列还以不同体裁作为类别划分,加入了古典小提琴、大提琴、钢琴、钢琴协奏曲、休闲古典、巴洛克、歌剧等主题选集。虽然这个系列中某些选曲的录音年份有些久远,但演绎者中不乏宗师级的人物,故欣赏价值也是颇高的。全系列由环球公司下属的德国EDC压片生产,品质优良,而封面设计则简约而不失典雅。该系列比较适合初涉古典音乐的朋友欣赏、收藏,通过这套入门级的CD能对古典音乐有一个基本的、初步的认知和了解。而已是古典音乐爱好者的乐友,或许也能从中找到一些自己可能还没有听过的演绎版本。

如需要检索该系列各选集的下载地址,请参看【DECCA《极致》系列的下载地址列表】,地址如下:
http://www.VeryCD.com/groups/@g2121418/705001.topic


【部分作品浅析】

维瓦尔第:小提琴协奏曲《四季》
作品大约作于1725年,是维瓦尔第大约五十岁时出版的十二部协奏曲的第一号到第四号,合称《四季》。
这四部协奏曲是维瓦尔第最著名的作品,其中的旋律至今仍长盛不衰。四部作品均采用三乐章协奏曲形式的正宗标题音乐,不仅照给定的十四行诗配上音乐,而且还运用了不少描写手法。维瓦尔第在总奏与主奏交替形成的复奏形式上,巧妙地配以标题。在维瓦尔第之前,还没有人以标题音乐的方式谱写过协奏曲。
由于维瓦尔第的《四季》属于标题音乐,所以从形式上看,自然较其他协奏曲显得自由而且不平衡,但这样反而更能表现出巴洛克的特色及魅力。这四部作品画意盎然,激发出人们对巴洛克时代音乐的浓厚兴趣。
《四季》的标题分别为:《春》E大调、《夏》G小调、《秋》F大调、《冬》F小调。其中以《春》的第一乐章(快板)最为著名,音乐展开轻快愉悦的旋律,使人联想到春天的葱绿;《夏》则出乎意料之外,表现出夏天的疲乏、恼人;《秋》描写的是收获季节中,农民们饮酒作乐、庆祝丰收的快活景象,第一乐章欢快活泼;《冬》描写人们走在冰上滑稽的姿态,以及由炉旁眺望窗外雨景等景象,其中第二乐章非常出名,曾被改编为轻音乐而广为流传。

亨德尔:《管风琴协奏曲》
亨德尔管风琴协奏曲,主要是Op.4的6曲与Op.7的6曲,这两套协奏曲都是在英国活跃时期的作品。除此12首外,另有4首无编号,共计16首。F大调第四号管风琴协奏曲 hwv292 亨德尔完成于1735年3月23日,属于op.4中的第四首同年四月一日首演,是六曲中最受欢迎的一首。全曲四个乐章。第一乐章:快板,4/4拍,合奏和齐奏。第二乐章:行板,降B大调,4/4拍,丰富的技巧展示。第三乐章:柔板,d小调,4/4拍,比较自由的短小的乐章。第四乐章:快板,F大调,4/4 拍,准赋格曲乐章,主题后来被《哈里路亚》引用,全曲约15分钟。

亨德尔:《焰火音乐》
皇家焰火音乐是亨德尔晚期最伟大的乐队作品之一,它是受命为英国庆祝“爱克斯-拉夏贝尔和约”的签订而作。这个和约结束了长期以来的“奥地利皇位继承战争 ”,庆祝活动有焰火表演和与之配合的辉煌音乐。在创作时,国王强调不要“提琴”。这首焰火音乐首演于1749年4月21日,在伦敦渥哈尔花园。
这部作品共分六个乐章:一、序曲。以华美而富丽堂皇的慢板旋律开头,然后以传统的赋格开始快板主体,利用乐器的对比重迭,表达出有活力、复杂的织体,然后又回到慢板。二、布列舞曲。这是一个小巧的中间插段,其旋律轻松而朴实,有跳跃感。三、西西里风格。这是一个宁静舒缓的广板,类似圣诞音乐中的田园曲。四、欢乐的快板。以巴洛克式小号主题表达的欢乐气氛。五、法国式的小步舞曲,柔和的对比乐章。六、小步舞曲,双簧管与大管的合奏。

亨德尔:《水上音乐》
又称《水乐》、《船乐》。亨德尔作于1717年,是一部管弦乐组曲。传说是在英国伦敦泰晤士河上为新即位的英皇乔治一世演奏的,故有“水上音乐”的美名。全部组曲由二十首小曲组成,开始是一首法国式的前奏曲,其后是布莱舞曲、小步舞曲等各种形式的舞曲,同时也有缓慢乐章。乐器使用了小提琴、低音提琴、日耳曼横笛、法兰西横笛、双簧管、圆号、小号等。共有六个乐章: 快板、布莱舞曲、小步舞曲、号角舞曲(一种古代的三拍子舞曲)、行板、坚决的快板。由于旋律优美动听,节奏轻巧而流传后世。这里我们选录了六个乐章中的第一乐章、第二乐章和第六乐章。第一乐章为庄严的序曲,乐曲气氛活泼热烈,开始由圆号与弦乐器共同奏出轻盈的同音反复和华美的颤音,相互对答。第二乐章为舞曲般的旋律,气氛轻松舒展。这里选录的第二主题为小调,抒情性很强。第六乐章为坚决的快板,威武雄壮。这一部分是全曲最为精彩的篇章。

巴赫:《四首乐队组曲》
巴赫为乐队所作的4首组曲BWV1066-1069,其实应该叫做序曲。这种序曲以歌剧序曲的范例写成,这类歌剧序曲原为路易十四的宫廷制定步态而作,后来成为流行的一种独立乐队作品。因为它与凡尔赛宫有关,人们把这种序曲看成“太阳神”的权力及华贵的象征,它代表着王室的尊严与权力。巴赫的这一套组曲表达的是至高无上的神的庄严。巴赫生前其实一定不止只创作了这4首组曲,但因巴赫生前不被重视,所以作品散失极多,目前留下的只有这4首。
第三首,D大调,BWV1068,大约作于1722年,这一首在4首中最为重要。门德尔松1830年曾在钢琴上把它弹给德国诗人歌德听,歌德听后的感觉是“开头是这样华丽尊严,使人可以想象到一大群显要人物沿着长长的楼梯鱼贯而下。”这首作品包括:1、法国式序曲。2、咏叹调,用弦乐合奏的方式,这个缓慢的乐章后由德国小提琴家威廉改编成小提琴曲,就是著名的《G弦上的咏叹调》。3、加沃特舞曲。4、布列舞曲。5、吉格舞曲。而马利纳爵士指挥圣马丁学院室内乐团的这个演绎版本也是很受世人称道的。

【部分演奏者简介】

玛丽安娜·席尔布(Mariana Sirbu)
出生于罗马尼亚,其父母从小就开始对她进行音乐培养。她毕业于布加勒斯特的音乐学院,师从于斯蒂凡·乔。自幼,她就已经开始了她的职业演出生涯,她曾在许多国际大赛中获奖,诸如“George Enescu(罗马尼亚)”、“Carl Flesch (伦敦)”、“Maria Canals(巴塞罗纳)”以及“Vittorio Gui(佛罗伦萨)”。
玛丽安娜·席尔布作为小提琴独奏家出现在许多世界著名的音乐厅。1969 年,她创建了卡卡德米亚弦乐四重奏,并与之进行了广泛巡演,多次获得了国际大奖。1985年,她与钢琴家布鲁诺·卡尼诺以及大提琴演奏家罗克·菲利匹尼成立了“蒂·米拉诺三重奏”,并频繁出现在欧洲、北美洲、南美洲及澳大利亚的舞台上。
她也是著名的国际室内乐音乐节的常任客席,与其他音乐家合作演出。1992 年,她出任了意大利室内乐团“音乐合奏团”的负责人及小提琴独奏家,已与其录制过为数众多的CD(菲利普)。1994年,她创建了斯塔蒂瓦瑞四重奏,还曾在西班牙、爱尔兰、荷兰、法国、瑞士、日本和意大利开设大师班讲座。
玛丽安娜为菲利普、德卡、斯万哈耳摩尼亚、联合国儿童基金会灌制了众多的LP和CD唱片。在她最近录制的CD唱片中包含的都是系列小提琴协奏曲和拉卡特利的小提琴狂想曲等。玛丽安娜·席尔布新近被任命为爱尔兰室内乐团的首席客座总监。
玛丽安娜·席尔布使用的小提琴正是大卫·奥伊斯特拉赫生前经常使用的斯特拉底瓦里Conte di Fortana小提琴。

音乐合奏团(I Musici):
成立于1952年的“I Musici”在意大利语中的意思即为“音乐家”,在中欧地区他们也被称为“罗马音乐家(I Music di Roma)”。这支不设指挥、由十二位成员组成的室内乐团,一直以来秉承着自己独特的艺术个性,在全球范围内取得极高的声誉,在演奏巴洛克音乐方面——尤其是维瓦尔第及阿尔比诺尼的作品——颇有建树,近年来他们也开始涉猎古典主义时期、浪漫主义时期乃至现代作品。他们曾为PHILIPS品牌灌录过多张唱片,销量不俗,其中也包括这里所发布的《四季》。实际上,他们对于这部作品的录音还有很多个版本,堪称是音乐合奏团最优秀的“保留节目”。

罗伯特·瑟斯顿·达特(Robert Thurston Dart):
生于1921年9月,卒于1971年3月。英国著名的音乐理论家、指挥家、键盘演奏家。1938-39年期间在伦敦皇家音乐学院习键盘乐器,1947年任剑桥大学音乐助教,1952年及1962年分别晋升为讲师及教授。自1964年起任伦敦大学爱德华国王学院音乐教授。其门下有作曲家Michael Nyman、指挥家Sir John Eliot Gardiner及Christopher Hogwood等。
除了教书育人外,1950-1965年瑟斯顿·达特曾担任Musica Britannica的秘书,积极参与有关英国古典音乐的发掘与保护的社会文化活动。他还撰写过许多关于音乐起源、演奏和诠释方面的文章,其1954年在伦敦出版的《音乐的诠释》一书也是极有影响力的。
瑟斯顿·达特并不经常在音乐会上演奏,但作为一名通奏低音演奏家,他也留下了大量的大键琴、翼琴及管风琴的录音作品,其中多以L'Oiseau-Lyre厂牌录制出版。

爱德瓦尔多·费尔南德斯(Eduardo Fernandez):
1952年生于乌拉圭,七岁开始学习吉他,曾师事著名的吉他教育家Abel Carlevaro、作曲家Guido Santorsola及Hector Tosar。年仅二十岁时,费尔南德斯即在多项国际大赛中展露头角,其中尤为著名的有:1972年巴西的《亚雷格雷国际吉他大赛》及1975年《巴黎国际吉他大赛》,而在1975年他更夺下西班牙《塞哥维亚国际吉他大赛》的桂冠。
1977年费尔南德斯首度在纽约登台,《纽约时报》评论他是:『一位顶尖的吉他家,在任何乐器独奏会中绝少能听到如此令人印象深刻的演出』。自此之后费尔南德斯几乎每一季都会应邀回到美国演出,并和各大乐团合作演出。1983年在伦敦的成功演出,为他赢得一纸 DECCA唱片公司的合约,并先后在DECCA公司灌录了17张专辑,曲目从独奏到协奏曲(与英国室内管弦乐团合作) ,涵盖了所有的时期,其中还有多张专辑被知名的Stereo Review及纽约时报评选为年度最佳唱片。
费尔南德斯具有令人注目的个人音乐风格和音乐素养,演奏足迹遍及欧洲各国、亚洲(中国、日本、中国台湾、韩国、香港、泰国)、南美及墨西哥,是一位纵横乐坛的顶尖吉他家。近年来他对古乐器产生了浓厚的兴趣,并且也尝试以十九世纪的吉他演奏当代的乐曲。最近他重新录制了巴赫的《鲁特琴组曲》就是使用着十九世纪的吉他。
费尔南德斯除了在蒙特维多大学的音乐学院任教外,亦经常在世界各地举办大师班和讲习会。他曾担任国际现代音乐学会乌拉圭分部的秘书两年,也是乌拉圭现代音乐学会的创始人之一。1999年他出版了一本关于吉他技巧的专书《Technique, Mechanism, Learning》。1996、1998及2000年,费尔南德斯做为《蒙特维多国际吉他节》的艺术总监,成功的将乌拉圭的吉他艺术介绍到世界各地。

(资料来源:Wikipedia、洪恩在线、古典吉他村等)


特别说明:
由于带宽限制,请大家在下载时给予充足的耐性;
专辑曲目中ADD或DDD后面的年份为录音年份;
本人所发布的任何资源仅供试听之用。有需要的朋友请购买正版CD;
如有乐友转发此帖至其它网站或论坛,请自觉注明原出处为www.VeryCD.com,并给出ED2K链接。
免拆播放利人利己
部分朋友下载完资源后,往往会将其解压以便播放。倒不是说这些人都没有共享精神,但受硬盘空间的限制,解压后尤其是较大的压缩包常常不得不删除或转移了。从而在一定程度上影响了资源的分流分享。也辜负了发布者将文件打包强制保源完整性的苦心。但实际上大家完全可以不解压直接播放压缩包音乐的。这样一来就能不拆包、不删除、不转移,既节约了空间,又不影响使用,还可以更好地保持完整源的数目以便分享给别人。这种利人利己的好事,何乐而不为呢?
方法1:Winmount可以将常用压缩格式ZIP/RAR等直接虚拟为光驱,轻松搞定压缩包,不需解压,直接使用压缩包中的文件。中文免费软件。在使用上比方法2灵活快捷,几乎感觉不到延迟,且用户如同操作自己的磁盘上其他文件一样轻松。推荐使用此方法。普通用户建议使用其官方绿色版Mini WinMount V0.4。Daemon Tools大家应该很熟悉吧?MiniWinMount使用上也就类似Daemon Tools那样把压缩包甚至是文件夹作为镜像载入,卸载,超级简单的。
方法2:Footbar2000可以直接播放压缩包内的文件。方法是在菜单选“文件”-“添加文件”,指向该压缩包;或者直接把压缩包拖进FB2000播放窗口。不过这样需要较大的内存占用。低配置的机器会比较吃力。

引用
LOG文件

CD1-------------------------CD1

Exact Audio Copy V0.99 prebeta 4 from 23. January 2008

EAC 抓取日志文件从2. 九月 2008, 13:32

Various / Ultimate Baroque CD1

使用驱动器 :PIONEER DVD-RW DVR-112 Adapter: 3 ID: 0

读取模式 : 保护
使用精确流 : 是
废除音频缓冲 : 是
使用 C2 指针 : 否

读取偏移校正 : 48
读取 Lead-In 和 Lead-Out : 是
用静音填充抓取中丢失偏移的采样 : 是
去除首尾静音块 : 否
在 CRC 计算中使用了空样本 : 是
已用接口 : Win NT 及 2000 本地 Win32 接口

所用输出格式 : 用户定义的编码器
已选比特率 : 1024 kBit/s
质量 : 高
添加 ID3 标签 : 否
命令行压缩器 : C:\Program Files\Exact Audio Copy\FLAC\FLAC.EXE
附加命令行参数 : -6 -V -T "ARTIST=%a" -T "TITLE=%t" -T "ALBUM=%g" -T "DATE=%y" -T "TRACKNUMBER=%n" -T "GENRE=%m" -T "COMMENT=%e" %s -o %d


被抓轨 CD 的 TOC

音轨 | 开始 | 长度 | 起始扇区 | 结尾扇区
--------------------------------------------------
1 | 0:00.33 | 3:27.00 | 33 | 15557
2 | 3:27.33 | 3:07.00 | 15558 | 29582
3 | 6:34.33 | 4:15.00 | 29583 | 48707
4 | 10:49.33 | 5:35.70 | 48708 | 73902
5 | 16:25.28 | 2:40.05 | 73903 | 85907
6 | 19:05.33 | 2:45.00 | 85908 | 98282
7 | 21:50.33 | 5:16.00 | 98283 | 121982
8 | 27:06.33 | 2:51.00 | 121983 | 134807
9 | 29:57.33 | 3:32.00 | 134808 | 150707
10 | 33:29.33 | 3:22.00 | 150708 | 165857
11 | 36:51.33 | 2:14.00 | 165858 | 175907
12 | 39:05.33 | 3:13.00 | 175908 | 190382
13 | 42:18.33 | 2:47.37 | 190383 | 202944
14 | 45:05.70 | 2:53.38 | 202945 | 215957
15 | 47:59.33 | 3:21.00 | 215958 | 231032
16 | 51:20.33 | 2:58.00 | 231033 | 244382
17 | 54:18.33 | 2:41.00 | 244383 | 256457
18 | 56:59.33 | 2:54.00 | 256458 | 269507


范围状态及错误

已选择范围

文件名 F:\Emule\New Release\Best Opera Classics 100\Various - Ultimate Baroque CD1.wav

峰值电平 96.6 %
范围质量 100.0 %
复制 CRC 1136A264
复制成功

没有错误发生


AccurateRip 概要

音轨 1 数据库中未见
音轨 2 数据库中未见
音轨 3 数据库中未见
音轨 4 数据库中未见
音轨 5 数据库中未见
音轨 6 数据库中未见
音轨 7 数据库中未见
音轨 8 数据库中未见
音轨 9 数据库中未见
音轨 10 数据库中未见
音轨 11 数据库中未见
音轨 12 数据库中未见
音轨 13 数据库中未见
音轨 14 数据库中未见
音轨 15 数据库中未见
音轨 16 数据库中未见
音轨 17 数据库中未见
音轨 18 数据库中未见

没有任何音轨出现在 AccurateRip 数据库中

状态报告结尾

CD2-------------------------CD2

Exact Audio Copy V0.99 prebeta 4 from 23. January 2008

EAC 抓取日志文件从2. 九月 2008, 18:51

Various / Ultimate Baroque CD2

使用驱动器 :PIONEER DVD-RW DVR-112 Adapter: 3 ID: 0

读取模式 : 保护
使用精确流 : 是
废除音频缓冲 : 是
使用 C2 指针 : 否

读取偏移校正 : 48
读取 Lead-In 和 Lead-Out : 是
用静音填充抓取中丢失偏移的采样 : 是
去除首尾静音块 : 否
在 CRC 计算中使用了空样本 : 是
已用接口 : Win NT 及 2000 本地 Win32 接口

所用输出格式 : 用户定义的编码器
已选比特率 : 1024 kBit/s
质量 : 高
添加 ID3 标签 : 否
命令行压缩器 : C:\Program Files\Exact Audio Copy\FLAC\FLAC.EXE
附加命令行参数 : -6 -V -T "ARTIST=%a" -T "TITLE=%t" -T "ALBUM=%g" -T "DATE=%y" -T "TRACKNUMBER=%n" -T "GENRE=%m" -T "COMMENT=%e" %s -o %d


被抓轨 CD 的 TOC

音轨 | 开始 | 长度 | 起始扇区 | 结尾扇区
--------------------------------------------------
1 | 0:00.33 | 4:34.35 | 33 | 20617
2 | 4:34.68 | 1:57.37 | 20618 | 29429
3 | 6:32.30 | 7:19.45 | 29430 | 62399
4 | 13:52.00 | 3:02.38 | 62400 | 76087
5 | 16:54.38 | 4:32.52 | 76088 | 96539
6 | 21:27.15 | 3:49.43 | 96540 | 113757
7 | 25:16.58 | 4:59.65 | 113758 | 136247
8 | 30:16.48 | 2:51.62 | 136248 | 149134
9 | 33:08.35 | 3:58.30 | 149135 | 167014
10 | 37:06.65 | 6:52.55 | 167015 | 197969
11 | 43:59.45 | 3:14.13 | 197970 | 212532
12 | 47:13.58 | 4:43.30 | 212533 | 233787
13 | 51:57.13 | 6:01.70 | 233788 | 260932
14 | 57:59.08 | 4:44.52 | 260933 | 282284
15 | 62:43.60 | 7:07.23 | 282285 | 314332


范围状态及错误

已选择范围

文件名 F:\Emule\New Release\Ultimate Baroque\Various - Ultimate Baroque CD2.wav

可疑位置 1:09:50

峰值电平 96.9 %
范围质量 99.9 %
复制 CRC BD03C97A
复制结束

出现错误


AccurateRip 概要

音轨 1 数据库中未见
音轨 2 数据库中未见
音轨 3 数据库中未见
音轨 4 数据库中未见
音轨 5 数据库中未见
音轨 6 数据库中未见
音轨 7 数据库中未见
音轨 8 数据库中未见
音轨 9 数据库中未见
音轨 10 数据库中未见
音轨 11 数据库中未见
音轨 12 数据库中未见
音轨 13 数据库中未见
音轨 14 数据库中未见
音轨 15 数据库中未见

没有任何音轨出现在 AccurateRip 数据库中

状态报告结尾

CD3-------------------------CD3

Exact Audio Copy V0.99 prebeta 4 from 23. January 2008

EAC 抓取日志文件从2. 九月 2008, 20:46

Various / Ultimate Baroque CD3

使用驱动器 :PIONEER DVD-RW DVR-112 Adapter: 3 ID: 0

读取模式 : 保护
使用精确流 : 是
废除音频缓冲 : 是
使用 C2 指针 : 否

读取偏移校正 : 48
读取 Lead-In 和 Lead-Out : 是
用静音填充抓取中丢失偏移的采样 : 是
去除首尾静音块 : 否
在 CRC 计算中使用了空样本 : 是
已用接口 : Win NT 及 2000 本地 Win32 接口

所用输出格式 : 用户定义的编码器
已选比特率 : 1024 kBit/s
质量 : 高
添加 ID3 标签 : 否
命令行压缩器 : C:\Program Files\Exact Audio Copy\FLAC\FLAC.EXE
附加命令行参数 : -6 -V -T "ARTIST=%a" -T "TITLE=%t" -T "ALBUM=%g" -T "DATE=%y" -T "TRACKNUMBER=%n" -T "GENRE=%m" -T "COMMENT=%e" %s -o %d


被抓轨 CD 的 TOC

音轨 | 开始 | 长度 | 起始扇区 | 结尾扇区
--------------------------------------------------
1 | 0:00.33 | 8:26.00 | 33 | 37982
2 | 8:26.33 | 1:29.00 | 37983 | 44657
3 | 9:55.33 | 3:47.00 | 44658 | 61682
4 | 13:42.33 | 3:43.00 | 61683 | 78407
5 | 17:25.33 | 4:36.00 | 78408 | 99107
6 | 22:01.33 | 6:02.00 | 99108 | 126257
7 | 28:03.33 | 7:25.00 | 126258 | 159632
8 | 35:28.33 | 3:36.00 | 159633 | 175832
9 | 39:04.33 | 3:00.00 | 175833 | 189332
10 | 42:04.33 | 1:08.00 | 189333 | 194432
11 | 43:12.33 | 3:28.00 | 194433 | 210032
12 | 46:40.33 | 1:18.00 | 210033 | 215882
13 | 47:58.33 | 3:06.00 | 215883 | 229832
14 | 51:04.33 | 3:07.00 | 229833 | 243857
15 | 54:11.33 | 2:46.00 | 243858 | 256307
16 | 56:57.33 | 3:09.00 | 256308 | 270482
17 | 60:06.33 | 1:37.00 | 270483 | 277757
18 | 61:43.33 | 2:02.40 | 277758 | 286947
19 | 63:45.73 | 3:05.35 | 286948 | 300857
20 | 66:51.33 | 1:18.00 | 300858 | 306707
21 | 68:09.33 | 0:42.00 | 306708 | 309857
22 | 68:51.33 | 1:55.00 | 309858 | 318482


范围状态及错误

已选择范围

文件名 F:\Emule\New Release\Ultimate Baroque\Various - Ultimate Baroque CD3.wav

峰值电平 81.0 %
范围质量 99.9 %
复制 CRC 0EE4E005
复制成功

没有错误发生


AccurateRip 概要

音轨 1 数据库中未见
音轨 2 数据库中未见
音轨 3 数据库中未见
音轨 4 数据库中未见
音轨 5 数据库中未见
音轨 6 数据库中未见
音轨 7 数据库中未见
音轨 8 数据库中未见
音轨 9 数据库中未见
音轨 10 数据库中未见
音轨 11 数据库中未见
音轨 12 数据库中未见
音轨 13 数据库中未见
音轨 14 数据库中未见
音轨 15 数据库中未见
音轨 16 数据库中未见
音轨 17 数据库中未见
音轨 18 数据库中未见
音轨 19 数据库中未见
音轨 20 数据库中未见
音轨 21 数据库中未见
音轨 22 数据库中未见

没有任何音轨出现在 AccurateRip 数据库中

状态报告结尾

CD4-------------------------CD4

Exact Audio Copy V0.99 prebeta 4 from 23. January 2008

EAC 抓取日志文件从3. 九月 2008, 8:45

Various / Ultimate Baroque CD4

使用驱动器 :PIONEER DVD-RW DVR-112 Adapter: 3 ID: 0

读取模式 : 保护
使用精确流 : 是
废除音频缓冲 : 是
使用 C2 指针 : 否

读取偏移校正 : 48
读取 Lead-In 和 Lead-Out : 是
用静音填充抓取中丢失偏移的采样 : 是
去除首尾静音块 : 否
在 CRC 计算中使用了空样本 : 是
已用接口 : Win NT 及 2000 本地 Win32 接口

所用输出格式 : 用户定义的编码器
已选比特率 : 1024 kBit/s
质量 : 高
添加 ID3 标签 : 否
命令行压缩器 : C:\Program Files\Exact Audio Copy\FLAC\FLAC.EXE
附加命令行参数 : -6 -V -T "ARTIST=%a" -T "TITLE=%t" -T "ALBUM=%g" -T "DATE=%y" -T "TRACKNUMBER=%n" -T "GENRE=%m" -T "COMMENT=%e" %s -o %d


被抓轨 CD 的 TOC

音轨 | 开始 | 长度 | 起始扇区 | 结尾扇区
--------------------------------------------------
1 | 0:00.32 | 5:55.40 | 32 | 26696
2 | 5:55.72 | 2:08.30 | 26697 | 36326
3 | 8:04.27 | 2:56.43 | 36327 | 49569
4 | 11:00.70 | 1:39.30 | 49570 | 57024
5 | 12:40.25 | 2:20.60 | 57025 | 67584
6 | 15:01.10 | 2:39.57 | 67585 | 79566
7 | 17:40.67 | 2:29.50 | 79567 | 90791
8 | 20:10.42 | 7:25.00 | 90792 | 124166
9 | 27:35.42 | 1:39.50 | 124167 | 131641
10 | 29:15.17 | 3:02.55 | 131642 | 145346
11 | 32:17.72 | 1:53.20 | 145347 | 153841
12 | 34:11.17 | 2:58.28 | 153842 | 167219
13 | 37:09.45 | 2:45.17 | 167220 | 179611
14 | 39:54.62 | 6:36.35 | 179612 | 209346
15 | 46:31.22 | 5:11.05 | 209347 | 232676
16 | 51:42.27 | 3:45.70 | 232677 | 249621
17 | 55:28.22 | 4:20.28 | 249622 | 269149
18 | 59:48.50 | 7:25.70 | 269150 | 302594
19 | 67:14.45 | 2:47.50 | 302595 | 315169
20 | 70:02.20 | 2:00.32 | 315170 | 324201
21 | 72:02.52 | 2:58.58 | 324202 | 337609
22 | 75:01.35 | 2:46.60 | 337610 | 350119


范围状态及错误

已选择范围

文件名 F:\Emule\New Release\Ultimate Baroque\Various - Ultimate Baroque CD4.wav

峰值电平 100.0 %
范围质量 100.0 %
复制 CRC 34A7AB5E
复制成功

没有错误发生


AccurateRip 概要

音轨 1 已正确抓取 (确认 3) [ECE5770F]
音轨 2 已正确抓取 (确认 3) [560AD1BE]
音轨 3 已正确抓取 (确认 3) [3A1888DC]
音轨 4 已正确抓取 (确认 3) [D00CA44E]
音轨 5 已正确抓取 (确认 3) [5082E9AE]
音轨 6 已正确抓取 (确认 3) [FB859BF0]
音轨 7 已正确抓取 (确认 3) [031C18EE]
音轨 8 已正确抓取 (确认 3) [1D8FAF48]
音轨 9 已正确抓取 (确认 3) [4AB4CDF0]
音轨 10 已正确抓取 (确认 3) [4AFBFF13]
音轨 11 已正确抓取 (确认 3) [827826AD]
音轨 12 已正确抓取 (确认 3) [7248F68D]
音轨 13 已正确抓取 (确认 3) [04C19051]
音轨 14 已正确抓取 (确认 3) [E6E00F9B]
音轨 15 已正确抓取 (确认 3) [EEB0C6EE]
音轨 16 已正确抓取 (确认 3) [182B315D]
音轨 17 已正确抓取 (确认 3) [6C1B55B7]
音轨 18 已正确抓取 (确认 3) [C1A1E257]
音轨 19 已正确抓取 (确认 3) [35DCB616]
音轨 20 已正确抓取 (确认 3) [471DBB7B]
音轨 21 已正确抓取 (确认 3) [0D7BD592]
音轨 22 已正确抓取 (确认 3) [6135378B]

所有音轨已被精确抓取

状态报告结尾

CD5-------------------------CD5

Exact Audio Copy V0.99 prebeta 4 from 23. January 2008

EAC 抓取日志文件从3. 九月 2008, 17:18

Various / Ultimate Baroque CD5

使用驱动器 :PIONEER DVD-RW DVR-112 Adapter: 3 ID: 0

读取模式 : 保护
使用精确流 : 是
废除音频缓冲 : 是
使用 C2 指针 : 否

读取偏移校正 : 48
读取 Lead-In 和 Lead-Out : 是
用静音填充抓取中丢失偏移的采样 : 是
去除首尾静音块 : 否
在 CRC 计算中使用了空样本 : 是
已用接口 : Win NT 及 2000 本地 Win32 接口

所用输出格式 : 用户定义的编码器
已选比特率 : 1024 kBit/s
质量 : 高
添加 ID3 标签 : 否
命令行压缩器 : C:\Program Files\Exact Audio Copy\FLAC\FLAC.EXE
附加命令行参数 : -6 -V -T "ARTIST=%a" -T "TITLE=%t" -T "ALBUM=%g" -T "DATE=%y" -T "TRACKNUMBER=%n" -T "GENRE=%m" -T "COMMENT=%e" %s -o %d


被抓轨 CD 的 TOC

音轨 | 开始 | 长度 | 起始扇区 | 结尾扇区
--------------------------------------------------
1 | 0:00.33 | 9:01.65 | 33 | 40672
2 | 9:02.23 | 6:21.37 | 40673 | 69284
3 | 15:23.60 | 7:16.70 | 69285 | 102054
4 | 22:40.55 | 3:49.28 | 102055 | 119257
5 | 26:30.08 | 5:08.35 | 119258 | 142392
6 | 31:38.43 | 2:13.40 | 142393 | 152407
7 | 33:52.08 | 5:43.10 | 152408 | 178142
8 | 39:35.18 | 4:37.40 | 178143 | 198957
9 | 44:12.58 | 3:19.10 | 198958 | 213892
10 | 47:31.68 | 3:53.67 | 213893 | 231434
11 | 51:25.60 | 4:04.48 | 231435 | 249782
12 | 55:30.33 | 2:12.00 | 249783 | 259682
13 | 57:42.33 | 6:28.45 | 259683 | 288827
14 | 64:11.03 | 5:17.45 | 288828 | 312647
15 | 69:28.48 | 4:01.65 | 312648 | 330787


范围状态及错误

已选择范围

文件名 F:\Emule\New Release\Ultimate Baroque\Various - Ultimate Baroque CD5.wav

峰值电平 73.5 %
范围质量 100.0 %
复制 CRC 0E3CA624
复制成功

没有错误发生


AccurateRip 概要

音轨 1 数据库中未见
音轨 2 数据库中未见
音轨 3 数据库中未见
音轨 4 数据库中未见
音轨 5 数据库中未见
音轨 6 数据库中未见
音轨 7 数据库中未见
音轨 8 数据库中未见
音轨 9 数据库中未见
音轨 10 数据库中未见
音轨 11 数据库中未见
音轨 12 数据库中未见
音轨 13 数据库中未见
音轨 14 数据库中未见
音轨 15 数据库中未见

没有任何音轨出现在 AccurateRip 数据库中

状态报告结尾



专辑曲目

CD1. Ultimate Baroque 1:
极致 - 巴洛克选集CD1:


Antonio Vivaldi 维瓦尔第

Concerto for Violin and Strings in E, Op.8, No.1, R.269 "La Primavera":
E大调第一号小提琴协奏曲“春”, Op.8/1, R.269
01. 1. Allegro
02. 2. Largo
03. 3. Allegro (Danza pastorale)

Concerto for Violin and Strings in G minor, Op.8, No.2, R.315 "L'estate":
G小调第二号小提琴协奏曲“夏”, Op.8/2, R.315
04. 1. Allegro non molto - Allegro
05. 2. Adagio - Presto - Adagio
06. 3. Presto (Tempo impetuoso d'estate)

Concerto for Violin and Strings in F, Op.8, No.3, R.293 "L'autunno":
F大调第三号小提琴协奏曲“秋”, Op.8/3, R.293
07. 1. Allegro (Ballo, e canto de' villanelli)
08. 2. Adagio molto (Ubriachi dormienti)
09. 3. Allegro (La caccia)

Concerto for Violin and Strings in F minor, Op.8, No.4, R.297 "L'inverno":
F小调第四号小提琴协奏曲“冬”, Op.8/4, R.297
10. 1. Allegro non molto
11. 2. Largo
12. 3. Allegro

Concerto for Violin and Strings in E flat, Op.8/5 , RV 253 "La tempesta di mare":
降E大调第五号小提琴协奏曲“海上的风暴”, Op.8/5 , RV 253
13. 1. (Allegro e) presto
14. 2. Largo
15. 3. Presto

Concerto for Violin and Strings in C, Op.8, No.6, R.180 "Il pia cere":
C大调第五号小提琴协奏曲“快乐”Op.8, No.6, R.180
16. 1. Allegro
17. 2. Largo e cantabile
18. 3. Allegro

- Mariana Sirbu (violin) / Shizuko Noiri (lute) / Francesco Buccarella (harpsichord) / I Musici / DDD 1995
- 小提琴:玛丽安娜·席尔布 - 鲁特琴:野入志津子 - 大键琴:弗朗西斯科·巴可莱拉 - 音乐合奏团

CD2. Ultimate Baroque 2:
极致 - 巴洛克选集CD2:


01. Johann Pachelbel: Canon in D (arr. Karl Münchinger)
帕赫贝尔:D大调卡农

02. Johann Pachelbel: Gigue in D major (arr. Seiffert)
帕赫贝尔:D大调吉格舞曲

03. Tomaso Albinoni: Adagio for Strings and Organ in G minor (Arr. by Remo Giazotto)
阿尔比诺尼:G小调柔板

04. J. S. Bach: Herz und Mund und Tat und Leben, Cantata BWV 147 - Jesu, joy of man's desiring
巴赫:第147号康塔塔《心与口》- 耶稣,世人欢愉的期待

05. J. S. Bach: Was mir behagt, ist nur die muntre Jagd, Cantata BWV 208 - Schafe können sicher weiden (arr. Münchinger)
巴赫:第208号康塔塔《什么使我感到愉快》- 羊儿会安宁地吃草

06. J. S. Bach: Suite No.3 in D, BWV 1068 - 2. Air
巴赫:D大调第三首乐队组曲, BWV 1068 - 2. 咏叹调(G弦上的咏叹调)

07. J. S. Bach: Prelude (Fantasy) and Fugue in G minor, BWV 542 "Great" - Fugue (arr. Karl Münchinger)
巴赫:G小调幻想曲与赋格, BWV 542 - 赋格

08. Luigi Boccherini: Minuet from String Quintet in E, Op.13, No.5
博凯里尼:E大调弦乐五重奏, Op.13/5 - 小步舞曲(博凯里尼的小步舞曲)

09. Roman Hoffstetter: String Quartet in F major, Op.3, No.5 (formerly attrib. J. Haydn) - Andante cantabile
霍夫斯泰特:F大调弦乐四重奏, Op.3/5 - 小夜曲

10. George Frideric Handel: 12 Concerti grossi, Op.6 - Concerto grosso in G minor, Op. 6, No. 6 - 3. Musette: Larghetto
亨德尔:大协奏曲, Op.6 - G小调第六号大协奏曲, Op. 6/6 - 第三乐章:穆塞特曲:很慢的慢板

11. George Frideric Handel: Solomon HWV 67, Act 3 - The Arrival of the Queen of Sheba
亨德尔:《所罗门》第三幕, HWV 67 - 席巴女王驾临

George Frideric Handel: Organ Concerto No.4 in F, Op.4 No.4 HWV 292 *:
亨德尔:F大调第四号管风琴协奏曲, Op.4/4 HWV 292
12. Allegro
13. Andante
14. Adagio - Allegro

15: George Frideric Handel: Berenice - Overture
亨德尔:《埃及王后贝尔尼斯》- 序曲

- Ulrich Bremsteller (organ) * / Stuttgarter Kammerorchester / Karl Münchinger (conductor) / ADD 1966 (06-10), 1977 (01-05, 11-15)
- 管风琴演奏:欧利克·布朗姆斯泰勒 * - 斯图加特室内乐团 - 指挥:卡尔·明兴格尔

CD3. Ultimate Baroque 3:
极致 - 巴洛克选集CD3:


George Frideric Handel 亨德尔

Music for the Royal Fireworks: Suite HWV 351:
皇家焰火音乐, HWV 351
01. 1. Ouverture
02. 2. Bourrée
03. 3. La paix
04. 4. La réjouissance
05. 5. Menuet I-II

Water Music Suite No.1 in F, HWV 348:
水上音乐第一组曲, F大调, HWV 348
06. 1. Ouverture (Grave - Allegro - Adagio e staccato)
07. 2. Allegro - Andante - Allegro
08. 3. Passepied
09. 4. Air
10. 5. Bourrée
11. 6. Allegro
12. 7. Hornpipe
13. 8. Menuet

Water Music Suite No.3 in G, HWV 350:
水上音乐第三组曲, G大调, HWV 350
14. 1. Sarabande
15. 2. Rigaudon
16. 3. Menuet I-II
17. 4. Gigue I-II

Water Music Suite No.2 in D, HWV 349:
水上音乐第二组曲, D大调, HWV 349
18. 1. Allegro
19. 2. Hornpipe
20. 3. Lentement
21. 4. Bourrée
22. 5. Menuet

- Leslie Pearson (harpsichord) / English Chamber Orchestra / Raymond Leppard (conductor) / ADD 1970 (06-22), 1971 (01-05)
- 大键琴:莱斯利·皮尔森 - 英国室内乐团 - 指挥:雷蒙德·莱帕德

CD4. Ultimate Baroque 4:
极致 - 巴洛克选集CD4:


Johann Sebastian Bach 巴赫

Suite No.1 in C, BWV 1066:
C大调第一首乐队组曲, BWV 1066
01. 1. Ouverture
02. 2. Courante
03. 3. Gavotte I-II
04. 4. Forlane
05. 5. Menuet I-II
06. 6. Bourrée I-II
07. 7. Passepied I-II

Suite No.2 in B minor, BWV 1067 *:
B小调第二首乐队组曲, BWV 1067
08. 1. Ouverture
09. 2. Rondeau
10. 3. Sarabande
11. 4. Bourrée I-II
12. 5. Polonaise
13. 6. Menuet - 7. Badinerie

Suite No.3 in D, BWV 1068:
D大调第三首乐队组曲, BWV 1068
14. 1. Ouverture
15. 2. Air
16. 3. Gavotte I-II
17. 4. Bourée - 5. Gigue

Suite No.4 in D, BWV 1069:
D大调第四首乐队组曲, , BWV 1069
18. 1. Ouverture
19. 2. Bourrée I-II
20. 3. Gavotte
21. 4. Menuet I-II
22. 5. Réjouissance

- William Bennett (flute) * / Thurston Dart (continuo) / Academy of St. Martin in the Fields / Neville Marriner (conductor) / ADD 1970
- 长笛演奏:威廉·班尼特 * - 通奏低音:瑟斯顿·达特 - 圣马丁室内乐团 / 指挥:马里纳

CD5. Ultimate Baroque 5:
极致 - 巴洛克选集CD5:


Mauro Giuliani: Guitar Concerto No.1 in A, Op.30 (Arr. Garigi):
朱里亚尼:A大调第一吉他协奏曲, Op.30
01. 1. Allegro maestoso
02. 2. Andante siciliano
03. 3. Alla polacca

Antonio Vivaldi: Concerto for Lute, 2 Violins and Continuo in D, RV.93 (Arr. for guitar & chamber orchestra G.F. Malipiero):
维瓦尔第:D大调鲁特琴、双小提琴及通奏低音协奏曲, RV.93
(由马利皮耶罗改编为吉他与室内乐团演奏)
04. 1. (Allegro giusto)
05. 2. Largo
06. 3. Allegro

Antonio Vivaldi: Concerto for Viola d'amore, Lute, Strings and Continuo in D minor, RV.540 (Arr. for guitar Malpiero) *:
维瓦尔第:D小调抒情维奥尔琴、鲁特琴与弦乐二重协奏曲, RV.540 *
(由马利皮耶罗改编为吉他演奏)
07. 1. Allegro
08. 2. Largo
09. 3. Allegro

Antonio Vivaldi: Sonata for Lute, Violin and Continuo, RV.82 (Arr. for guitar & chamber orchestra Pujol):
维瓦尔第:鲁特琴、小提琴、通奏低音三重奏鸣曲, RV.82
(由普霍尔改编为吉他与室内乐团演奏)
10. 1. Allegro non molto
11. 2. Larghetto
12. 3. Allegro

Nicolo Paganini: Sonata in A major for guitar:
帕格尼尼:A大调吉他奏鸣曲
13. 1. Allegro risoluto
14. 2. Romanza: Più tosto largo. Amorosamente
15. 3. Andantino Variato. Scherzando

- Eduardo Fernandez (guitar) / Norbert Blume (viola d amore) *
- English Chamber Orchestra / George Malcolm (conductor) / DDD 1984 (13-15), 1986 (01-12)
- 吉他演奏:爱德瓦尔多·费尔南德斯 - 抒情维奥尔琴演奏:诺伯特·布流姆 *
- 英国室内乐团 - 指挥:乔治·迈考姆

正在读取……

这里是其它用户补充的资源(我也要补充):

暂无补充资源
正在加载,请稍等...

点击查看所有109网友评论

 

(?) [公告]留口水、评论相关规则 | [活动]每日签到 轻松领取电驴经验

    小贴士:
  1. 类似“顶”、“沙发”之类没有营养的文字,对勤劳贡献的楼主来说是令人沮丧的反馈信息。
  2. 提问之前请再仔细看一遍楼主的说明,或许是您遗漏了。
  3. 勿催片。请相信驴友们对分享是富有激情的,如果确有更新版本,您一定能搜索到。
  4. 请勿到处挖坑绊人、招贴广告。既占空间让人厌烦,又没人会搭理,于人于己都无利。
  5. 如果您发现自己的评论不见了,请参考以上4条。