v

您的位置:VeryCD音乐古典音乐

音乐资源事务区


Francois Couperin & Antoine Forqueray -《维奥尔琴小品》(Pieces de Violes)Nima Ben David,Alpha[APE]

  • 状态: 精华资源
  • 摘要:
    发行时间2000年
  • 时间: 2008/09/08 19:36:32 发布 | 2008/09/08 19:36:33 更新
  • 分类: 音乐  古典音乐 

Marcelproust

精华资源: 301

全部资源: 307

相关: 分享到新浪微博   转播到腾讯微博   分享到开心网   分享到人人   分享到QQ空间   订阅本资源RSS更新   美味书签  subtitle
该内容尚未提供权利证明,无法提供下载。
专辑英文名Pieces de Violes
专辑中文名维奥尔琴小品
资源格式APE
版本Nima Ben David,Alpha
发行时间2000年
地区法国
简介

IPB Image


作曲:Francois Couperin, Antoine Forqueray
演奏:Nima Ben David(basse de viole)
Jonathan Rubin(theorbe&guitare baroque), Sophie Bauchet(basse de viole), Helene Clerc-Murgier(clavecin)
录音日期:2000
发行公司:Alpha
资源出处:EC_gdsclassical

专辑介绍:

福克赖(Antoine Forqueray, 1672-1745),法国低音维奥尔琴演奏家、作曲家,5岁就对路易十四献艺,1689年以维奥尔琴演奏家身份进宫廷供职,是当时最伟大的维奥尔琴演奏家,作有300首维奥尔琴演奏曲。

库普兰(François Couperin, 1668—1733),法国作曲家,大键琴与管风琴演奏家,库普兰家族中最优秀的一员,又称“大库普兰”。1685年任巴黎圣热尔韦教堂管风琴师,1693年起又任皇家圣堂管风琴师,故有路易十四御前管风琴师之称。库普兰把科莱里的三重奏奏鸣曲形式引入法国,使器乐表达因融人其独特的感受能力而更具色彩感。(林逸聪)

转自EC,ape+cue+log,有完整扫图,感谢原发布者gdsclassical


原压缩包内的cue文件带有西文字符可能无法播放,我把自己改的cue文件附在下面
请把ape文件改名为Couperin_&_Forqueray_Pieces_de_violes.ape

代码
REM GENRE Baroque / Chambre
REM DATE 2000
REM COMMENT Nima Ben David, basse de viole (Pierre Thouvenot, d'apres Michel Collichon) Jonathan Rubin, theorbe & guitare baroque (theorbe de Jacob van de Geest & guitare baroque de Jiri Cepelak) Sophie Bauchet, basse de viole (Pierre Thouvenot, d'apres Michel Collichon) Helene Clerc-Murgier, clavecin (clavecin flamand de l'Atelier Marc Ducornet d'apres Ruckers) Direction artistique: Nicolas Bartholomee Enregistrement realise à Paris, chapelle de l'h?pital Notre-Dame de Bon Secours, en janvier 2000 par Nicolas Bartholomee assiste de Nicolas de Beco Montage numerique realise par Aline Blondiau et Charlotte Charbonnier (Musica Numeris) ? 2000 Alpha (ALPHA 007)
PERFORMER "Nima Ben David"
TITLE "Couperin & Forqueray - Pieces de violes"
FILE "Couperin_&_Forqueray_Pieces_de_violes.ape" WAVE
  TRACK 01 AUDIO
    TITLE "Couperin, Francois (1668-1733) · Premiere suite - 1. Prelude"
    INDEX 01 00:00:00
  TRACK 02 AUDIO
    TITLE "Couperin, Francois (1668-1733) · Premiere suite - 2. Allemande legere"
    INDEX 01 03:55:12
  TRACK 03 AUDIO
    TITLE "Couperin, Francois (1668-1733) · Premiere suite - 3. Courante"
    INDEX 01 06:08:37
  TRACK 04 AUDIO
    TITLE "Couperin, Francois (1668-1733) · Premiere suite - 4. Sarabande grave"
    INDEX 01 08:05:52
  TRACK 05 AUDIO
    TITLE "Couperin, Francois (1668-1733) · Premiere suite - 5. Gavotte"
    INDEX 01 11:53:00
  TRACK 06 AUDIO
    TITLE "Couperin, Francois (1668-1733) · Premiere suite - 6. Gigue"
    INDEX 01 14:07:47
  TRACK 07 AUDIO
    TITLE "Couperin, Francois (1668-1733) · Premiere suite - 7. Passacaille ou Chaconne"
    INDEX 01 16:14:12
  TRACK 08 AUDIO
    TITLE "Couperin, Francois (1668-1733) · Deuxieme suite - 1. Prelude"
    INDEX 00 21:08:70
    INDEX 01 21:17:22
  TRACK 09 AUDIO
    TITLE "Couperin, Francois (1668-1733) · Deuxieme suite - 2. Fugue"
    INDEX 01 23:39:55
  TRACK 10 AUDIO
    TITLE "Couperin, Francois (1668-1733) · Deuxieme suite - 3. Pompe funebre"
    INDEX 01 25:38:67
  TRACK 11 AUDIO
    TITLE "Couperin, Francois (1668-1733) · Deuxieme suite - 4. La Chemise blanche"
    INDEX 01 32:39:30
  TRACK 12 AUDIO
    TITLE "Forqueray, Antoine (1672-1745) · Premiere suite - 1. Allemande La Laborde"
    INDEX 00 36:39:32
    INDEX 01 36:57:07
  TRACK 13 AUDIO
    TITLE "Forqueray, Antoine (1672-1745) · Premiere suite - 2. La Forqueray"
    INDEX 01 43:09:47
  TRACK 14 AUDIO
    TITLE "Forqueray, Antoine (1672-1745) · Premiere suite - 3. La Cottin"
    INDEX 01 47:30:72
  TRACK 15 AUDIO
    TITLE "Forqueray, Antoine (1672-1745) · Premiere suite - 4. La Bellmont"
    INDEX 01 50:55:40
  TRACK 16 AUDIO
    TITLE "Forqueray, Antoine (1672-1745) · Premiere suite - 5. La Portugaise"
    INDEX 01 55:00:45
  TRACK 17 AUDIO
    TITLE "Forqueray, Antoine (1672-1745) · Premiere suite - 6. La Couperin"
    INDEX 01 58:52:07



专辑曲目

Francois Couperin
Premiere suite

01. Prelude
02. Allemande legere
03. Courante
04. Sarabande grave
05. Gavotte
06. Gigue
07. Passacaille ou Chaconne
Deuxieme suite
08. Prelude
09. Fugue
10. Pompe funebre
11. La Chemise blanche

Antoine Forqueray
Premiere suite

12. Allemande La Laborde
13. La Forqueray
14. La Cottin
15. La Bellmont
16. La Portugaise
17. La Couperin

正在读取……

这里是其它用户补充的资源(我也要补充):

暂无补充资源
正在加载,请稍等...

点击查看所有16网友评论

 

(?) [公告]留口水、评论相关规则 | [活动]每日签到 轻松领取电驴经验

    小贴士:
  1. 类似“顶”、“沙发”之类没有营养的文字,对勤劳贡献的楼主来说是令人沮丧的反馈信息。
  2. 提问之前请再仔细看一遍楼主的说明,或许是您遗漏了。
  3. 勿催片。请相信驴友们对分享是富有激情的,如果确有更新版本,您一定能搜索到。
  4. 请勿到处挖坑绊人、招贴广告。既占空间让人厌烦,又没人会搭理,于人于己都无利。
  5. 如果您发现自己的评论不见了,请参考以上4条。