v

您的位置:VeryCD音乐欧美音乐

音乐资源事务区


John Mayer -《Any Given Thursday》[APE]

  • 状态: 精华资源
  • 摘要:
    发行时间2003年
    地区美国
    语言英语
  • 时间: 2008/08/28 21:47:28 发布 | 2015/11/14 19:02:26 更新
  • 分类: 音乐  欧美音乐 

paomian0379

精华资源: 170

全部资源: 171

相关: 分享到新浪微博   转播到腾讯微博   分享到开心网   分享到人人   分享到QQ空间   订阅本资源RSS更新   美味书签  subtitle
该内容尚未提供权利证明,无法提供下载。
专辑英文名Any Given Thursday
歌手John Mayer
资源格式APE
发行时间2003年
地区美国
语言英语
简介

IPB Image


专辑介绍:

成人流行摇滚乐新声掌门人,获得葛莱美奖“最佳男歌手”肯定展现才气及人气的精采演唱会现场!

微温的歌唱情绪,年轻随性的创作文采,就跟The Wallflowers主唱Jakob Dylan、Dave Matthews这些深受美国Adult Rock音乐电台宠爱的歌手一样,John Mayer在麦克风前总是能自在的散发笔下的词曲文采,弥漫著高度的亲合力,瞬间解除听歌者的情绪武装,首支单曲“No Such Thing”自2001年夏季推出后,一年来依然高居美国成人摇滚电台的热门播放榜,在Billboard成人榜入主Top5及流行单曲榜Top13佳绩;第二支单曲“Your Body Is Wonderland”同样是缔造成人榜Top5及流行单曲榜Top18名次。

首张专辑《Room For Squares》,在口碑的推波助澜下,跃升到Billboard流行专辑榜TOP 15,并且停留榜上40周以上,更在美国CDNow网站销售名列前10名,滚石杂志不但给予专辑4颗星的超高评价,还将他与凡妮莎、艾薇儿等人列为2002年最值得瞩目的新秀歌手之一,连乐坛前辈艾尔顿?强都对Mayer赞美有加,2002年夏季更获MTV音乐录影带大奖最佳新进艺人提名。

这张双CD的现场演唱专辑,John Mayer除了演唱《Room For Squares》专辑中的畅销歌曲之外,也演唱了在加盟SONY之前的旧作及从未正式发表的单曲等。

起码在网上找了2年这张专辑的无损格式,未果,今天终于在淘宝买到这张专辑,不敢独享,马上来发布了!!以后还会继续发布其他的无损格式。强烈推荐CD2的04. Covered In Rain ,中间长达5分钟的吉他SOLO已经达到JOHN MAYER的顶峰

Disc 1 CUE:

代码
PERFORMER "John Mayer"
TITLE "Any Given Thursday Disc 1"
FILE "John.Mayer.-.[Any.Given.Thursday].Disc.1.专辑.(ape).ape" WAVE
  TRACK 01 AUDIO
    TITLE "3X5"
    PERFORMER "John Mayer"
    INDEX 01 00:00:00
  TRACK 02 AUDIO
    TITLE "No Such Thing"
    PERFORMER "John Mayer"
    INDEX 00 08:05:33
    INDEX 01 08:05:40
  TRACK 03 AUDIO
    TITLE "Back to You"
    PERFORMER "John Mayer"
    INDEX 00 12:51:58
    INDEX 01 12:51:60
  TRACK 04 AUDIO
    TITLE "City Love"
    PERFORMER "John Mayer"
    INDEX 00 17:27:62
    INDEX 01 17:27:70
  TRACK 05 AUDIO
    TITLE "Something's Missing"
    PERFORMER "John Mayer"
    INDEX 01 22:38:70
  TRACK 06 AUDIO
    TITLE "Lenny/Man on the Side"
    PERFORMER "John Mayer"
    INDEX 00 29:26:25
    INDEX 01 29:26:30
  TRACK 07 AUDIO
    TITLE "Message in a Bottle"
    PERFORMER "John Mayer"
    INDEX 01 38:12:52
  TRACK 08 AUDIO
    TITLE "Love Song for No One"
    PERFORMER "John Mayer"
    INDEX 01 43:19:40


Disc 2 CUE:
代码

PERFORMER "John Mayer"
TITLE "Any Given Thursday Disc 2"
FILE "John.Mayer.-.[Any.Given.Thursday].Disc.2.专辑.(ape).ape" WAVE
  TRACK 01 AUDIO
    TITLE "Why Georgia"
    PERFORMER "John Mayer"
    INDEX 01 00:00:00
  TRACK 02 AUDIO
    TITLE "Your Body Is a Wonderland"
    PERFORMER "John Mayer"
    INDEX 00 08:24:02
    INDEX 01 08:24:05
  TRACK 03 AUDIO
    TITLE "My Stupid Mouth"
    PERFORMER "John Mayer"
    INDEX 00 14:29:50
    INDEX 01 14:29:57
  TRACK 04 AUDIO
    TITLE "Covered in Rain"
    PERFORMER "John Mayer"
    INDEX 00 19:31:74
    INDEX 01 19:32:02
  TRACK 05 AUDIO
    TITLE "83"
    PERFORMER "John Mayer"
    INDEX 01 29:57:15
  TRACK 06 AUDIO
    TITLE "Comfortable"
    PERFORMER "John Mayer"
    INDEX 00 37:27:00
    INDEX 01 37:27:07
  TRACK 07 AUDIO
    TITLE "Neon"
    PERFORMER "John Mayer"
    INDEX 00 45:04:19
    INDEX 01 45:04:27



专辑曲目

Disk:1
01. 3x5
02. No Such Thing
03. Back To You
04. City Love
05. Something's Missing
06. Lenny/Man On The Side
07. Message In A Bottle
08. Love Song For No One

Disk:2
01. Why Georgia
02. Your Body Is A Wonderland
03. My Stupid Mouth
04. Covered In Rain
05. 83 Medley
06. Comfortable
07. Neon

正在读取……

这里是其它用户补充的资源(我也要补充):

暂无补充资源
正在加载,请稍等...

点击查看所有69网友评论

 

(?) [公告]留口水、评论相关规则 | [活动]每日签到 轻松领取电驴经验

    小贴士:
  1. 类似“顶”、“沙发”之类没有营养的文字,对勤劳贡献的楼主来说是令人沮丧的反馈信息。
  2. 提问之前请再仔细看一遍楼主的说明,或许是您遗漏了。
  3. 勿催片。请相信驴友们对分享是富有激情的,如果确有更新版本,您一定能搜索到。
  4. 请勿到处挖坑绊人、招贴广告。既占空间让人厌烦,又没人会搭理,于人于己都无利。
  5. 如果您发现自己的评论不见了,请参考以上4条。