v

您的位置:VeryCD音乐古典音乐

音乐资源事务区


V.A. -《极致:门德尔松选集》(Ultimate Mendelssohn) DECCA极致系列(5CD Box-set)[FLAC]

  • 状态: 精华资源
  • 摘要:
    发行时间2008年
  • 时间: 2008/08/11 17:50:12 发布 | 2008/08/16 19:19:03 更新
  • 分类: 音乐  古典音乐 

Leonson

精华资源: 78

全部资源: 78

相关: 分享到新浪微博   转播到腾讯微博   分享到开心网   分享到人人   分享到QQ空间   订阅本资源RSS更新   美味书签  subtitle
该内容尚未提供权利证明,无法提供下载。
专辑英文名Ultimate Mendelssohn
专辑中文名极致:门德尔松选集
艺术家V.A.
版本 DECCA极致系列(5CD Box-set)[FLAC]
发行时间2008年
地区英国
简介

IPB Image


盒装名称:Ultimate Mendelssohn, the essential masterpieces (5CD)
唱片公司:Decca
发行编号:478 0102 DB5
录音制式:DDD
专辑类型:Classical
CD编号:478 0103-7
资源出处:Leonson私人CD原版原抓

专辑介绍

关于DECCA的《Ultimate》系列

DECCA 《Ultimate》系列包括多套5CD一组的主题选集,着重地介绍了各个时代的大师们最有影响力、最广为流传的古典音乐作品,其中包括贝多芬、巴赫、肖邦、柴可夫斯基、莫扎特、舒伯特等的必听之作。此外,该系列还以不同体裁作为类别划分,加入了古典小提琴、大提琴、钢琴、钢琴协奏曲、休闲古典、巴洛克、歌剧等主题选集。虽然这个系列中某些选曲的录音年份有些久远,但演绎者中不乏宗师级的人物,故欣赏价值也是颇高的。全系列由环球公司下属的德国EDC压片生产,品质优良,而封面设计则简约而不失典雅。该系列比较适合初涉古典音乐的朋友欣赏、收藏,通过这套入门级的CD能对古典音乐有一个基本的、初步的认知和了解。而已是古典音乐爱好者的乐友,或许也能从中找到一些自己可能还没有听过的演绎版本。

如需要检索该系列各选集的下载地址,请参看【DECCA《极致》系列的下载地址列表】,地址如下:
http://www.VeryCD.com/groups/@g2121418/705001.topic


本次发布的是《门德尔松选集》,中文曲名仅供参考。专辑曲目中每张CD下方的英文按演奏(唱)者、乐团、指挥、首版年份这个顺序排列。

作曲家及部分演绎者介绍

费利克斯·门德尔松(Jakob Ludwig Felix Mendelssohn Bartholdy):

IPB Image
1809年出生于汉堡一个犹太家庭。祖父是哲学家摩西·门德尔松,父亲是一位成功的银行家,费利克斯在养尊处优又有文化修养的环境中成长。他的母亲是钢琴家,他的钢琴启蒙课就是母亲教的。姐姐范尼·卡西里(1805-1847)也是一位在钢琴和作曲方面的可造之材,而且是费利克斯珍贵的挚友。
费利克斯·门德尔松是钢琴神童,9岁就开始公开演奏,10岁时就为《诗篇19》谱曲,12岁已写出一首钢琴四重奏(op.1),14岁组织自己的私人乐队,16岁发表第一首杰作《弦乐八重奏》,17岁时完成了《仲夏夜之梦》序曲。20岁时他通过指挥《马太受难曲》在巴赫去世后的首次公开演出来宣传巴赫的作品。这是1829年,演出地点为柏林歌唱学院。引起轰动而成为闻名遐迩的指挥家。为巴赫的作品得以复生作出了重要的贡献。同年赴英国指挥伦敦爱乐乐队,这是他十次英国之行的第一次。在苏格兰度假后,以《赫布里底群岛》序曲和《苏格兰交响曲》(No.3,A小调)表现他的观感,虽然这两部作品是直到他1830-1831年访问意大利时才动笔写作的。在罗马与柏辽兹邂逅,并开始酝酿《意大利交响曲》(No.4,A大调)。下一个主要停留点是巴黎(1831-1832),在那里与李斯特和肖邦相遇。1833年返回德国,完成《意大利交响曲》并在杜塞尔多夫就任音乐总监。1835年成为莱比锡著名的布业大厅音乐会的指挥。1837年与出身于法国胡格诺教派家庭的塞西尔·让莱诺结婚。1842年与舒曼等人一起创办莱比锡音乐学院。又设法再度访问英国,在1846年的伯明翰音乐节上指挥他的清唱剧《以利亚》,取得辉煌成功。此时他的健康已是每况愈下,次年他心爱的姐姐病故,给他以沉重的打击,加速了他的死亡。他于六个月后去世,享年38岁。

门德尔松的贡献
门德尔松是莫扎特之后最完美的曲式大师,古典主义的传统与浪漫主义的志趣在他作品中完美的结合在一起,赋予作品以一种诗意的典雅。他善于将美妙的旋律纳入正规的古典曲式,他不仅是一位热情歌颂自然的诗人,还是一位善于用虚无飘渺画笔的风景画家,他的音乐被称为“描绘性浪漫主义”。
门德尔松作为作曲家、指挥家和钢琴演奏家的才华得到了玛利·比戈(在巴黎)、路德维希·贝格尔、莫舍莱斯等钢琴老师和策尔特(1817年在柏林教他作曲)的鼓励。
他在短暂的一生中创作了大量的各种体裁的音乐作品,作品的风格温柔舒适、优美恬静、完整严谨、极少矛盾冲突、富于诗意幻想,反映出他生活上的安定富足。他创作的《芬格尔山洞》、《第一钢琴协奏曲》、《无词歌》、《意大利交响曲》《苏格兰交响曲》等都是著名的作品。
门德尔松最早“成熟”作品《仲夏夜之梦》序曲(1826)和《赫布里底群岛》(1830-1832)展现出他的精湛的技巧和独特的旋律风格,标志着标题性或描写性音乐会序曲创作史中的一个重要阶段。在后来的作品中他的视野大为扩展(交响曲、协奏曲、清唱剧、合唱音乐、室内乐、钢琴曲、管风琴奏鸣曲、歌曲),但在“技巧”或表情方面却未见有多大的进展。他的很多音乐作品所共有的精练、美妙与和声上的规规矩矩在《以利亚》的伯明翰首演中达到登峰造极的境地,为维多利亚中期的音乐趣味定下了规范。但是他也大胆探索,那首被低估了的《宗教改革交响曲》(No.5,D小调)中不同寻常的结构和瓦格纳风格的先兆就证明了这一点。钢琴独奏《无词歌》是一些精致的小品,柔媚之极,以致使人无法一首又一首地连续聆听,但其中充满令人悦意的创新。他为《马太受难曲》所作的那次著名的演出大大推动了巴赫音乐的复兴;而自从他指挥布业大厅乐队后,他的盛名开始蒸蒸日上,管弦乐演奏也因他的指挥而确立了新标准。

主要作品
(1) 乐队:
五部交响曲(第二为交响康塔塔《颂赞歌》,作于1840年,第三为《苏格兰交响曲》,作于1842年,第四为《意大利交响曲》,作于1833年,第五为《宗教改革交响曲》,作于1830年);
序曲有:《仲夏夜之梦》(1826)、《赫布里底群岛》(1830-1832,又名《苏格尔山洞》)、《平静的大海和幸福的航行》(1828)、《美丽的梅露西娜传奇》(1833)和《吕伊·布拉斯》(1839);
钢琴协奏曲有:《G小调》(1831)、《D小调 》(1837); 双钢琴协奏曲有《降A大调》(1824) 《E大调》、《小提琴协奏曲》(1844)。
(2) 合唱作品:
清唱剧有:《圣保罗》(1834-1836)、《以利亚》(1846-1847)、《耶稣基督》(未完成,1847);
交响康塔塔《颂赞歌》(1840,有人称之为第二交响曲);九首诗篇歌;九首经文歌。
(3) 戏剧音乐:
歌剧有:《卡马秋的婚礼》(1825)、《儿子与陌路人》(1829)、《洛雷利》(未完成,1847);戏剧配乐有《安提戈涅》 (1841)、《第一个瓦尔普吉斯之夜》(1831,1842)、《仲夏夜之梦》(1843)、《阿塔利亚》(1843-1845)、《俄狄浦斯在科洛纳斯》(1845)。
(4) 室内乐:
六首弦乐四重奏;三首钢琴四重奏(1822-1825);两首弦乐五重奏(1831,1845);弦乐六重奏(1824);弦乐八重奏 (1825);两首三重奏(D小调,1839;C小调,1845);小提琴奏鸣曲,两首大提琴奏鸣曲(1838、1843)。
(5) 钢琴:《升F小调随想曲》(1825);《E小调回旋随想曲》;六首前奏与赋格(1832-1837);六集《无词歌》。
(6) 管风琴:三首前奏曲与赋格(1833-1837);六首奏鸣曲(1839-1844)。
(7) 歌曲与主调合唱曲:十套钢琴伴奏的歌曲;十一套主调合唱曲。

门德尔松的艺术成就
1、在创作上首创了无词歌这种高雅纯净形式短小的音乐,它是一种在伴奏音型的衬托下旋律如歌的钢琴小品,其特征与歌曲非常接近,能像日记一样把日常感受记录下来;他对标题交响乐作出了重要贡献,创作了著名的《仲夏夜之梦》序曲等作品,把浪漫主义与古典主义的特点交织在一起,音乐既含有古典主义的逻辑性,又带有浪漫主义的幻想性。他创作的《E小调小提琴协奏曲》具有华丽的技巧与甜美的旋律,表现出生活中明朗的一面,是举世公认的精品;
2、在音乐的启蒙运动上,他使人们遗忘了几乎一百多年的作品——巴赫的《马太受难乐》重放光芒,这是音乐史上的最重大事件之一,从此人们开始重新认识巴赫;
3、在音乐教育上,他创办了德国第一所音乐学院——莱比锡音乐学院,为近代的音乐教育的发展打下了坚实的基础。

作品赏析 -《仲夏夜之梦》
门德尔松为莎士比亚的喜剧《仲夏夜之梦》共写过两部音乐作品,一部是在1826年作者17岁那年所作的钢琴四手联弹《仲夏夜之梦》序曲,次年改变成管弦乐曲,被称为是音乐为史上第一部浪漫主义标题性音乐会序曲;另一部是1843年为《仲夏夜之梦》所写的戏剧配乐。其中的序曲就选用了当年的序曲。
《仲夏夜之梦》序曲是门德尔松的代表作,它曲调明快、欢乐,是作者幸福生活、开朗情绪的写照。曲中展现了神话般的幻想、大自然的神秘色彩和诗情画意。全曲充满了一个17岁的年轻人流露出的青春活力和和清新气息,又体现了同龄人难以掌握的技巧和卓越的音乐表现力,充分表现出作曲家的创作风格及独特才华,是门德尔松创作历程中的一个里程碑。
在虚无缥缈的短引子之后,音乐进入小提琴顿音奏出的轻盈灵巧的第一主题,描绘了小精灵在朦胧的月光下嬉游的舞蹈。随后出现的第二主题欢乐而愉快,有管弦乐齐奏伴随着雄壮的号角,呈现出粗犷有力的舞蹈音乐,并立即转入热情激动而温顺的恋人主题,曲调朴素动人。经过多次音乐的发展变化,乐队又奏出了舞蹈性的新主题,具有幽默、谐谑的特征。


赫伯特·布隆斯达特(Herbert Blomstedt):
IPB Image
瑞典著名指挥家,1927年7月11日出生于美国马萨诸塞州南部工业城市斯普林菲尔德,在他2岁时全家迁回瑞典定居。1950-1955年期间,他在萨尔茨堡随著名指挥家马尔凯维奇(Igor Markevith)学指挥。1962-1968年,他出任挪威奥斯陆爱乐乐团首席指挥,1967-1977年,为丹麦哥本哈根广播交响乐团指挥。1977-1982年,兼任瑞典广播交响乐团首席指挥等。这位在欧洲发展而成名的指挥家,影响最大的还是他出任德国德累斯顿国家乐团音乐总监兼指挥的1975-1985这十年,留下了大量的经典录音作品。之后,在1985-1995这十年里,布隆斯达特又将旧金山交响乐团推向了世界著名乐团的行列,演出地横跨欧亚各国,并荣获两项格莱美奖、一项留声机奖、一项格林披治唱片奖。
布隆斯达特还是国际著名的指挥教授,1961-1970年,他曾在斯德哥尔摩皇家音乐学院教授指挥。他还以客席指挥教授的身份在摩纳哥蒙地卡罗、美国科罗拉多(Colorado)等处工作过。
在布隆斯达特领导旧金山交响乐团10年之后,于1995年退休,现仍担任乐团的桂冠指挥。而作为一名虔诚的耶稣再临论者,布隆斯达特从未在周六排演过,但遇有正式演出时则例外,因为他不认为演出是在工作。
布隆斯达特最为著名的指挥作品是德奥古典音乐(例如贝多芬、门德尔松、舒伯特、理查·施特劳斯等)以及北欧日尔曼古典音乐(例如格里格、西贝柳斯等),在国际乐坛上享有崇高声誉。

平夏斯·祖克曼(Pinchas Zukerman):
IPB Image
著名的以色列小提琴家、中提琴家及指挥家,1948年出生于特拉维夫,从小随父亲平夏斯大师学习音乐,最初学单簧管,8岁考入特拉维夫音乐学院,随费赫尔(Ilona Feher)学习小提琴。1962年在斯特恩及美国-以色列基金会的赞助下,进入美国朱利亚音乐学院,随小提琴教育家加拉米安(Ivan Galamian)深造。1967年在纽约参加第25届莱文特里德比赛(Leventritt Competition)中获一等奖。祖克曼是布朗大学的荣誉博士,他还荣获过纽约国际中心的成就奖。1983年美国总统里根曾授予他艺术奖章。祖克曼的录音作品逾百部,曾21次获格莱美奖提名,两次获奖,演出足迹遍布世界各地。

安德莱斯·席夫(András Schiff):
IPB Image
匈牙利钢琴家,1953年生于布达佩斯,1979年移民,2001年成为英国公民。席夫5岁开始学琴,15岁在匈牙利电台举办的“发掘音乐天才”钢琴比赛中获第一名,同年入李斯特音乐学院学习,并在伦敦师从马尔科姆学习大键琴。1973年在匈牙利国家广播钢琴比赛中获第二名,1974年参加柴科夫斯基国际比赛获第四名。七十年代,席夫与戴佐朗基、佐坦·柯西斯一起被称为匈牙利“钢琴三杰”。1999年,成立自己的室内乐团Cappella Andrea Barca,自此也在多个著名乐团担任指挥。席夫学过古钢琴,精心钻研斯卡拉蒂、巴赫、海顿等作曲家的分句技巧,是巴赫、舒伯特和舒曼作品的最有名的现代诠释者之一。其演绎的作品有清新、清秀的特点,音色极佳,充分发挥了现代钢琴的魅力。

巴伐利亚广播交响乐团(The Bavarian Radio Symphony Orchestra):
1949年创建于慕尼黑,隶属于巴伐利亚广播局,最早的一批核心成员来自慕尼黑的一个广播交响乐团。其演奏音色明亮,技巧高超,是慕尼黑与慕尼黑爱乐乐团和巴伐利亚国家管弦乐团齐名的三大乐团之一,也是欧洲一流乐团之一。历任首席指挥包括约胡姆(Eugen Jochum)、库贝里克(Rafael Kubelík)、戴维斯(Sir Colin Davis)及马泽尔(Lorin Maazel)等著名指挥家,现任首席指挥为杨颂斯(Mariss Jansons)。该乐团因其肖斯塔科维奇第十三交响曲的录音而获2006年格莱美最佳管弦乐演绎奖。

安布罗西安合唱团 (The Ambrosian Singers):
伦敦的安布逊合唱团是最著名的合唱团体之一,有着大量的录音作品。该合唱团在二战结束后成立于英格兰,创始人为丹尼斯·史蒂文斯(Denis Stevens)及约翰·麦卡锡(John McCarthy)。丹尼斯·史蒂文斯是英国的一位音乐理论家和中提琴演奏家,1949年曾加入BBC音乐部并开发了有关文艺复兴及早期巴洛克音乐的电台节目;约翰·麦卡锡则是一位男高音职业歌唱家。1951年,两人组建并创立的安布逊合唱团仍是一个小型的合唱团,时至今日,它已发展为一个最多可达700名职业演唱者参与的、涉足音乐会演出、唱片录制、影视歌曲配唱等的综合性音乐团体。

(以上介绍部分选自百度百科、EMULE及WIKIPEDIA)


特别说明:
由于带宽限制,请大家在下载时给予充足的耐性;
本人所发布的任何资源仅供试听之用。有需要的朋友请购买正版CD;
“专辑曲目”中演绎者英文资料一行最后面的年份为录音制式及录音年份;
如有乐友转发此帖至其它网站或论坛,请自觉注明原出处为www.VeryCD.com,并给出ED2K链接。

引用
LOG文件

CD1.......................................CD1
Exact Audio Copy V0.99 prebeta 4 from 23. January 2008

EAC 抓取日志文件从24. 七月 2008, 15:27

Blomstedt - SFS / Ultimate Mendelssohn CD1

使用驱动器 :PIONEER DVD-RW DVR-112 Adapter: 3 ID: 0

读取模式 : 保护
使用精确流 : 是
废除音频缓冲 : 是
使用 C2 指针 : 否

读取偏移校正 : 48
读取 Lead-In 和 Lead-Out : 是
用静音填充抓取中丢失偏移的采样 : 是
去除首尾静音块 : 否
在 CRC 计算中使用了空样本 : 是
已用接口 : Win NT 及 2000 本地 Win32 接口

所用输出格式 : 用户定义的编码器
已选比特率 : 1024 kBit/s
质量 : 高
添加 ID3 标签 : 否
命令行压缩器 : C:\Program Files\Exact Audio Copy\FLAC\FLAC.EXE
附加命令行参数 : -6 -V -T "ARTIST=%a" -T "TITLE=%t" -T "ALBUM=%g" -T "DATE=%y" -T "TRACKNUMBER=%n" -T "GENRE=%m" -T "COMMENT=%e" %s -o %d


被抓轨 CD 的 TOC

音轨 | 开始 | 长度 | 起始扇区 | 结尾扇区
--------------------------------------------------
1 | 0:00.33 | 14:54.15 | 33 | 67097
2 | 14:54.48 | 4:18.02 | 67098 | 86449
3 | 19:12.50 | 8:52.00 | 86450 | 126349
4 | 28:04.50 | 9:11.40 | 126350 | 167714
5 | 37:16.15 | 10:42.05 | 167715 | 215869
6 | 47:58.20 | 6:21.55 | 215870 | 244499
7 | 54:20.00 | 6:57.25 | 244500 | 275799
8 | 61:17.25 | 5:42.28 | 275800 | 301477


范围状态及错误

已选择范围

文件名 F:\Emule\New Release\Ultimate Mendelssohn\Blomstedt - SFS - Ultimate Mendelssohn CD1.wav

峰值电平 97.7 %
范围质量 100.0 %
复制 CRC 82E3DDD8
复制成功

没有错误发生


AccurateRip 概要

音轨 1 无法精确校验 (确认 4) [7583B86A], AccurateRip 返回 [4F99865D]
音轨 2 无法精确校验 (确认 4) [C79C7CA8], AccurateRip 返回 [5D71C443]
音轨 3 无法精确校验 (确认 4) [A0F8E67A], AccurateRip 返回 [03541B93]
音轨 4 无法精确校验 (确认 4) [D85EAB09], AccurateRip 返回 [1C126FEF]
音轨 5 无法精确校验 (确认 3) [D627DDD0], AccurateRip 返回 [08E3CCB6]
音轨 6 无法精确校验 (确认 3) [7DF8DB55], AccurateRip 返回 [ED7DDD8D]
音轨 7 无法精确校验 (确认 3) [2E007BAC], AccurateRip 返回 [866D065B]
音轨 8 无法精确校验 (确认 3) [EDBE1467], AccurateRip 返回 [762F4F8E]

没有音轨被精确验证
你可能遇到在数据库中的一词多义

状态报告结尾

CD2.......................................CD2

Exact Audio Copy V0.99 prebeta 4 from 23. January 2008

EAC 抓取日志文件从24. 七月 2008, 15:59

P.Zukerman - St Paul Chamber Orchestra / Ultimate Mendelssohn CD2

使用驱动器 :PIONEER DVD-RW DVR-112 Adapter: 3 ID: 0

读取模式 : 保护
使用精确流 : 是
废除音频缓冲 : 是
使用 C2 指针 : 否

读取偏移校正 : 48
读取 Lead-In 和 Lead-Out : 是
用静音填充抓取中丢失偏移的采样 : 是
去除首尾静音块 : 否
在 CRC 计算中使用了空样本 : 是
已用接口 : Win NT 及 2000 本地 Win32 接口

所用输出格式 : 用户定义的编码器
已选比特率 : 1024 kBit/s
质量 : 高
添加 ID3 标签 : 否
命令行压缩器 : C:\Program Files\Exact Audio Copy\FLAC\FLAC.EXE
附加命令行参数 : -6 -V -T "ARTIST=%a" -T "TITLE=%t" -T "ALBUM=%g" -T "DATE=%y" -T "TRACKNUMBER=%n" -T "GENRE=%m" -T "COMMENT=%e" %s -o %d


被抓轨 CD 的 TOC

音轨 | 开始 | 长度 | 起始扇区 | 结尾扇区
--------------------------------------------------
1 | 0:00.00 | 21:18.71 | 0 | 95920
2 | 21:18.71 | 6:55.36 | 95921 | 127081
3 | 28:14.32 | 14:54.42 | 127082 | 194173
4 | 43:08.74 | 7:44.23 | 194174 | 228996
5 | 50:53.22 | 4:34.24 | 228997 | 249570
6 | 55:27.46 | 6:33.16 | 249571 | 279061


范围状态及错误

已选择范围

文件名 F:\Emule\New Release\Ultimate Mendelssohn\P.Zukerman - St Paul Chamber Orchestra - Ultimate Mendelssohn CD2.wav

峰值电平 95.5 %
范围质量 100.0 %
复制 CRC 4D9B270B
复制成功

没有错误发生


AccurateRip 概要

音轨 1 数据库中未见
音轨 2 数据库中未见
音轨 3 数据库中未见
音轨 4 数据库中未见
音轨 5 数据库中未见
音轨 6 数据库中未见

没有任何音轨出现在 AccurateRip 数据库中

状态报告结尾

CD3.......................................CD3

(注:由于误操作,电脑上的所有LOG文件均丢失了。在此补上CUE内容)

REM GENRE Classical
REM DISCID 3F09A806
REM COMMENT "ExactAudioCopy v0.99pb4"
PERFORMER "A.Schiff - C.Dutoit - BRSO"
TITLE "Ultimate Mendelssohn CD3"
FILE "A.Schiff.-.C.Dutoit.-.BRSO.-.[Ultimate.Mendelssohn.CD3].专辑.(flac).flac" WAVE
TRACK 01 AUDIO
TITLE "Piano Concerto No.1 in G minor op.25 - i. Molto allegro con fuoco"
PERFORMER "A.Schiff - C.Dutoit - BRSO"
INDEX 00 00:00:00
INDEX 01 00:00:33
TRACK 02 AUDIO
TITLE "Piano Concerto No.1 in G minor op.25 - ii. Andante"
PERFORMER "A.Schiff - C.Dutoit - BRSO"
INDEX 00 06:53:02
INDEX 01 06:53:05
TRACK 03 AUDIO
TITLE "Piano Concerto No.1 in G minor op.25 - iii. Presto"
PERFORMER "A.Schiff - C.Dutoit - BRSO"
INDEX 01 12:19:70
TRACK 04 AUDIO
TITLE "Piano Concerto No.2 in D minor op.40 - i. Allegro appassionato"
PERFORMER "A.Schiff - C.Dutoit - BRSO"
INDEX 00 18:45:58
INDEX 01 18:56:20
TRACK 05 AUDIO
TITLE "Piano Concerto No.2 in D minor op.40 - ii. Adagio"
PERFORMER "A.Schiff - C.Dutoit - BRSO"
INDEX 01 28:10:10
TRACK 06 AUDIO
TITLE "Piano Concerto No.2 in D minor op.40 - iii. Finale: Presto scherzando"
PERFORMER "A.Schiff - C.Dutoit - BRSO"
INDEX 00 34:09:28
INDEX 01 34:09:30


CD4.......................................CD4

REM GENRE Classical
REM DISCID 900A370B
REM COMMENT "ExactAudioCopy v0.99pb4"
PERFORMER "Neville Marriner - Philharmonia Orchestra"
TITLE "Ultimate Mendelssohn CD4"
FILE "Neville.Marriner.-.Philharmonia.Orchestra.-.[Ultimate.Mendelssohn.CD4]. 专辑.(flac).flac" WAVE
TRACK 01 AUDIO
TITLE "A Midsummer Night's Dream - Overture"
PERFORMER "Neville Marriner - Philharmonia Orchestra"
INDEX 00 00:00:00
INDEX 01 00:00:32
TRACK 02 AUDIO
TITLE "A Midsummer Night's Dream - Scherzo: Allegro vivace"
PERFORMER "Neville Marriner - Philharmonia Orchestra"
INDEX 00 12:16:74
INDEX 01 12:17:30
TRACK 03 AUDIO
TITLE "A Midsummer Night's Dream - L'istesso tempo"
PERFORMER "Neville Marriner - Philharmonia Orchestra"
INDEX 00 17:25:07
INDEX 01 17:25:55
TRACK 04 AUDIO
TITLE "A Midsummer Night's Dream - Song with chorus 'You spotted snakes'"
PERFORMER "Neville Marriner - Philharmonia Orchestra"
INDEX 00 19:01:61
INDEX 01 19:03:05
TRACK 05 AUDIO
TITLE "A Midsummer Night's Dream - Intermezzo"
PERFORMER "Neville Marriner - Philharmonia Orchestra"
INDEX 00 23:00:54
INDEX 01 23:02:05
TRACK 06 AUDIO
TITLE "A Midsummer Night's Dream - Notturno"
PERFORMER "Neville Marriner - Philharmonia Orchestra"
INDEX 00 25:11:45
INDEX 01 25:13:68
TRACK 07 AUDIO
TITLE "A Midsummer Night's Dream - Wedding March"
PERFORMER "Neville Marriner - Philharmonia Orchestra"
INDEX 00 31:40:62
INDEX 01 31:41:05
TRACK 08 AUDIO
TITLE "A Midsummer Night's Dream - Prologue"
PERFORMER "Neville Marriner - Philharmonia Orchestra"
INDEX 00 35:54:13
INDEX 01 35:54:30
TRACK 09 AUDIO
TITLE "A Midsummer Night's Dream - Funeral March"
PERFORMER "Neville Marriner - Philharmonia Orchestra"
INDEX 00 36:14:11
INDEX 01 36:14:30
TRACK 10 AUDIO
TITLE "A Midsummer Night's Dream - Dance of the Clowns"
PERFORMER "Neville Marriner - Philharmonia Orchestra"
INDEX 01 37:24:30
TRACK 11 AUDIO
TITLE "A Midsummer Night's Dream - Finale 'Through this house give glimm'ring light'"
PERFORMER "Neville Marriner - Philharmonia Orchestra"
INDEX 00 38:54:44
INDEX 01 38:55:18

CD5.......................................CD5

REM GENRE Classical
REM DISCID 3E0D4316
REM COMMENT "ExactAudioCopy v0.99pb4"
PERFORMER "Andras Schiff"
TITLE "Ultimate Mendelssohn CD5"
FILE "Andras.Schiff.-.[Ultimate.Mendelssohn.CD5].专辑.(flac).flac" WAVE
TRACK 01 AUDIO
TITLE "Songs Without Words - Op.53 no.1 Andante con moto"
PERFORMER "Andras Schiff"
INDEX 00 00:00:00
INDEX 01 00:00:32
TRACK 02 AUDIO
TITLE "Songs Without Words - Op.67 no.4 'Spinning Song'"
PERFORMER "Andras Schiff"
INDEX 00 03:15:26
INDEX 01 03:16:47
TRACK 03 AUDIO
TITLE "Songs Without Words - Op.53 no.2 Allegro non troppo"
PERFORMER "Andras Schiff"
INDEX 00 05:15:12
INDEX 01 05:17:55
TRACK 04 AUDIO
TITLE "Songs Without Words - Op.53 no.3 Presto agitato"
PERFORMER "Andras Schiff"
INDEX 00 07:58:06
INDEX 01 07:58:57
TRACK 05 AUDIO
TITLE "Songs Without Words - Op.62 no.1 Andante espressivo"
PERFORMER "Andras Schiff"
INDEX 00 10:45:72
INDEX 01 10:49:25
TRACK 06 AUDIO
TITLE "Songs Without Words - Op.85 no.6 Allegretto con moto"
PERFORMER "Andras Schiff"
INDEX 00 13:12:71
INDEX 01 13:15:00
TRACK 07 AUDIO
TITLE "Songs Without Words - Op.19 no.6 'Venetian Gondola'"
PERFORMER "Andras Schiff"
INDEX 00 15:27:22
INDEX 01 15:31:07
TRACK 08 AUDIO
TITLE "Songs Without Words - Op.30 no.3 Adagio non troppo"
PERFORMER "Andras Schiff"
INDEX 00 18:12:16
INDEX 01 18:13:70
TRACK 09 AUDIO
TITLE "Songs Without Words - Op.30 no.4 Agitato e con fuoco"
PERFORMER "Andras Schiff"
INDEX 00 20:13:41
INDEX 01 20:15:00
TRACK 10 AUDIO
TITLE "Songs Without Words - Op.30 no.5 Andante grazioso"
PERFORMER "Andras Schiff"
INDEX 00 23:14:62
INDEX 01 23:15:60
TRACK 11 AUDIO
TITLE "Songs Without Words - Op.30 no.6 'Venetian Gondola'"
PERFORMER "Andras Schiff"
INDEX 00 25:55:62
INDEX 01 25:58:07
TRACK 12 AUDIO
TITLE "Songs Without Words - Op.102 no.5 'Children's Piece'"
PERFORMER "Andras Schiff"
INDEX 00 28:57:13
INDEX 01 28:59:52
TRACK 13 AUDIO
TITLE "Songs Without Words - Op.19 no.1 Andante con moto"
PERFORMER "Andras Schiff"
INDEX 00 30:32:56
INDEX 01 30:35:27
TRACK 14 AUDIO
TITLE "Songs Without Words - Op.19 no.2 Andante espressivo"
PERFORMER "Andras Schiff"
INDEX 00 33:41:71
INDEX 01 33:44:35
TRACK 15 AUDIO
TITLE "Songs Without Words - Op.19 no.4 Moderato"
PERFORMER "Andras Schiff"
INDEX 00 36:28:35
INDEX 01 36:30:05
TRACK 16 AUDIO
TITLE "Songs Without Words - Op.19 no.5 Presto agitato"
PERFORMER "Andras Schiff"
INDEX 00 38:25:42
INDEX 01 38:26:25
TRACK 17 AUDIO
TITLE "Songs Without Words - Op.38 no.1 Con moto"
PERFORMER "Andras Schiff"
INDEX 00 42:13:19
INDEX 01 42:19:47
TRACK 18 AUDIO
TITLE "Songs Without Words - Op.38 no.2 Allegro non troppo"
PERFORMER "Andras Schiff"
INDEX 00 44:51:12
INDEX 01 44:52:42
TRACK 19 AUDIO
TITLE "Songs Without Words - Op.38 no.6 'Duetto'"
PERFORMER "Andras Schiff"
INDEX 00 46:46:69
INDEX 01 46:48:27
TRACK 20 AUDIO
TITLE "Songs Without Words - Op.67 no.6 Allegretto non troppo"
PERFORMER "Andras Schiff"
INDEX 00 49:27:59
INDEX 01 49:31:10
TRACK 21 AUDIO
TITLE "Songs Without Words - Op.62 no.6 'Spring Song'"
PERFORMER "Andras Schiff"
INDEX 00 52:07:15
INDEX 01 52:09:32
TRACK 22 AUDIO
TITLE "Songs Without Words - Op.102 no.3 Presto"
PERFORMER "Andras Schiff"
INDEX 01 54:56:55



专辑曲目

CD1. Ultimate Mendelssohn 1: Symphonies Nos.3 & 4
极致 - 门德尔松选集CD1:第三、第四交响曲

Felix Mendelssohn (1809 - 1847)

Symphony No.3 in A minor, Op.56 "Scottish"
A小调第三交响曲“苏格兰”, Op.56
01. 1. Andante con moto - Allegro un poco agitato - Assai animato - Andante come prima
02. 2. Vivace non troppo
03. 3. Adagio
04. 4. Allegro vivacissimo - Allegro maestoso assai

Symphony No.4 in A, Op.90 "Italian"
A大调第四交响曲“意大利”, Op.90
05. 1. Allegro vivace
06. 2. Andante con moto
07. 3. Con moto moderato
08. 4. Saltarello (Presto)

- San Francisco Symphony Orchestra / Herbert Blomstedt (conductor) / DDD 1991 (Op.56), 1989 (Op.90)
- 旧金山交响乐团 - 指挥:布隆斯达特

CD2. Ultimate Mendelssohn 2: Violin Concerto | Octet in E flat
极致 - 门德尔松选集CD2:小提琴协奏曲、降E大调弦乐八重奏

Felix Mendelssohn (1809 - 1847)

Violin Concerto in E minor, Op.64 *
E小调小提琴协奏曲, Op.64
01. 1. Allegro molto appassionato - 2. Andante
02. 3. Allegro non troppo - Allegro molto vivace

Octet in E flat, Op.20
降E大调弦乐八重奏, Op.20
03. 1. Allegro moderato, ma con fuoco
04. 2. Andante
05. 3. Scherzo (Allegro leggierissimo)
06. 4. Presto

- St. Paul Chamber Orchestra / Pinchas Zukerman (conductor & violin *) / DDD 1983
- 圣保罗室内乐团 - 指挥、小提琴演奏 *:平夏斯·祖克曼

CD3. Ultimate Mendelssohn 3: Piano Concertos Nos. 1 & 2
极致 - 门德尔松选集CD3:第一、第二钢琴协奏曲

Felix Mendelssohn (1809 - 1847)

Piano Concerto No.1 in G minor, Op.25
G小调第一钢琴协奏曲, Op.25
01. 1. Molto allegro con fuoco
02. 2. Andante
03. 3. Presto

Piano Concerto No.2 in D minor, Op.40
D小调第二钢琴协奏曲, Op.40
04. 1. Allegro appassionato
05. 2. Adagio. Molto sostenuto
06. 3. Finale. Presto scherzando

- András Schiff (piano) / Symphonieorchester des Bayerischen Rundfunks / Charles Dutoit (conductor) / DDD 1982
- 钢琴演奏:安德莱斯·席夫 - 巴伐利亚广播交响乐团 - 指挥:迪图瓦

CD4. Ultimate Mendelssohn 4: A Midsummer Night's Dream
极致 - 门德尔松选集CD4:仲夏夜之梦

Felix Mendelssohn (1809 - 1847)

01. Overture "A Midsummer Night's Dream", Op.21
“仲夏夜之梦”序曲, Op.21

A Midsummer Night's Dream, Op.61 Incidental Music:
“仲夏夜之梦”戏剧配乐, Op.61
02. No.1 Scherzo
03. No.2. L'istesso tempo
04. Song with chorus: "You spotted snakes" (English version) *°†
05. No.5 Intermezzo
06. No.7 Notturno
07. No.9 Wedding March
08. No.10 a. Prologue
09. No.10 b. Funeral March
10. No.11 Dance of the Clowns
11. Finale: "Though this house give glimm'ring light" (English version) *†

- Arleen Augér (soprano) * / Ann Murray (mezzo-soprano) ° / The Ambrosian Singers † / Philharmonia Orchestra / Sir Neville Marriner (conductor) / DDD 1983
- 女高音演唱:奥格 * - 女中音演唱:安妮·莫莉 ° - 合唱:安布罗西安合唱团 † - 爱乐乐团 - 指挥:马里纳

CD5. Ultimate Mendelssohn CD5: Lieder ohne Worte
极致 - 门德尔松选集CD5:无词歌

Felix Mendelssohn (1809 - 1847)

Lieder ohne Worte
无词歌

01. Op.53 No. 1. Andante con moto in A flat
02. Op.67 No. 4. Presto in C "The Bee's Wedding" ("Spinning Song")
03. Op.53 No. 2. Allegro non troppo in E flat "The Fleecy Cloud"
04. Op.53 No. 3. Presto agitato in G minor
05. Op.62 No. 1 Andante espressivo in G
06. Op.85 No. 6. Allegretto con moto in B flat
07. Op.19 No. 6 in G minor (Andante sostenuto) "Venetian Gondola Song"
08. Op.30 No. 3. Andante sostenuto in E "Consolation"
09. Op.30 No. 4. Agitato e con fuoco in B minor
10. Op.30 No. 5. Andante grazioso in D
11. Op.30 No. 6. Allegretto in F sharp minor "Venetian Gondola Song"
12. Op.102 No. 5. Allegro vivace in A "The Joyous Peasant"
13. Op.19 No. 1 in E (Andante con moto) "Sweet Remembrance"
14. Op.19 No. 2 in A minor (Andante espressivo)
15. Op.19 No. 4 in A (Moderato)
16. Op.19 No. 5 in F sharp minor (Agitato) "Restlessness"
17. Op.38 No. 1. Con moto in E flat
18. Op.38 No. 2. Allegro non troppo in C minor "Lost Happiness"
19. Op.38 No. 6. Andante con moto in A flat "Duetto"
20. Op.67 No. 6. Allegro non troppo in E "Cradle Song"
21. Op.62 No. 6 Andante grazioso in A "Spring Song"
22. Op.102 No. 3. Presto in C "Tarantelle"

- András Schiff (piano) / DDD 1986
- 钢琴演奏:安德莱斯·席夫

正在读取……

这里是其它用户补充的资源(我也要补充):

暂无补充资源
正在加载,请稍等...

点击查看所有88网友评论

 

(?) [公告]留口水、评论相关规则 | [活动]每日签到 轻松领取电驴经验

    小贴士:
  1. 类似“顶”、“沙发”之类没有营养的文字,对勤劳贡献的楼主来说是令人沮丧的反馈信息。
  2. 提问之前请再仔细看一遍楼主的说明,或许是您遗漏了。
  3. 勿催片。请相信驴友们对分享是富有激情的,如果确有更新版本,您一定能搜索到。
  4. 请勿到处挖坑绊人、招贴广告。既占空间让人厌烦,又没人会搭理,于人于己都无利。
  5. 如果您发现自己的评论不见了,请参考以上4条。