v

您的位置:VeryCD综艺科教节目

综艺资源事务区


《光芒四射》(Shine a Light)[DVDRip]

  • 状态: 精华资源
  • 摘要:
    发行时间2008年
    地区美国
    语言英语
  • 时间: 2008/08/07 09:45:00 发布 | 2008/08/07 23:09:02 更新
  • 分类: 综艺  科教节目 

喵喵驴驴

精华资源: 133

全部资源: 134

相关: 分享到新浪微博   转播到腾讯微博   分享到开心网   分享到人人   分享到QQ空间   订阅本资源RSS更新   美味书签  subtitle
该内容尚未提供权利证明,无法提供下载。
中文名光芒四射
英文名Shine a Light
资源格式DVDRip
发行时间2008年
主持人Martin Scorsese
地区美国
语言英语
简介

IPB Image

【原 片 名】:Shine a Light
【中 文 名】:光芒四射
【出品年代】:2008
【IMDB链接】:IMDB
【IMDB评分】:7.5/10 (2,126 votes)
【国  家】:美国
【类  型】:艺术/纪录
【语  言】:英语
【字  幕】:英语,法语,西班牙语
【供源状况】:非自己供源

【内容简介】:
  当世上最棒的导演遇上最传奇的乐队,将碰撞出什么火花?影迷将于Martin Scorsese执导的Rolling Stones演唱会纪录片Shine A Light,见证到跨领域大师的结合。
  Martin Scorsese的年纪与Rolling Stones写歌拍档Mick Jagger & Keith Richards相差不到一岁。虽然一美一英,各有所成的领域也不相同,可论起老当益壮,这几名六十多岁的家伙还真无退位之打算(虽然日前才有媒体披露,Rolling Stones计划于这周日的伦敦演唱会后发表退休宣言,此后不再巡回。但这群老骨头会不会在七十岁时来个告别地球巡演,却也没人说得准)。
  Shine A Light的电影主体是去年10/29与11/1,两场举行于纽约Beacon Theatre,为了庆祝美国前总统Bill Clinton六十大寿的特别演出。由于一票难求,并非有钱便能入手,且受邀的都是有头有脸的人物,这两场演出曾于去年引起了众多讨论,尤其当时已传出 Martin Scorsese将亲临拍片。
  替Shine A Light掌镜的摄影师都是拥有奥斯卡背景的一时之选, 剪接师David Tedeschi已于No Direction Home展现其深厚功力,Rolling Stones更亲自担当了执行制作。至于内容,不只采用了大量的后台实况、团员访谈,还援引了不少Rolling Stones摄于六零与七零年代的历史影像。这种共冶一炉的叙事模式,是标准的Scorsese式手法,也让Shine A Light甚受期待。
  片名的出处,取自于1972年Rolling Stones经典专辑Exile On Main St.其中一首。而加拿大乐队Wolf Parade首张大碟Apologies to the Queen Mary也恰有一曲名为Shine A Light。这究竟是巧合或别有致敬之意,此处就不得而知了。
这张《Shine a Light》是马丁·斯克塞斯(Martin Scorsese)执导拍摄的滚石乐队(The Rolling Stones)同名纪录片的原声大碟。在英国流行音乐专辑榜中上榜第一周,本张专辑获得了亚军。与在美国Billboard 200专辑榜中的打榜成绩相比,《Shine a Light》在英国更受欢迎。算上精选集和现场专辑,《Shine a Light》已经是The Rolling Stones乐队第35张打入英国专辑榜前十名中的专辑。
  《Shine a Light》记录的是The Rolling Stones 2006年秋天在纽约aBeacon Theatre两晚的演出现场,里面包括The Rolling Stones各个时期的代表作品,此外,专辑中还收录了白色条纹(The White Stripes)主唱Jack White、布鲁斯吉他大师Buddy Guy和流行小天后Christina Aguilera与Rolling Stones合作的曲目。
  对于喜欢收藏唱片的歌迷来说,这张《Shine a Light》的诱惑力并不是很大,购买这张专辑的人更多的可能是这部同名纪录片的影迷。因为,对于乐迷们来说,Rolling Stones乐队以往发行的专辑、现场和各式各样的精选集已经够你买了。 (摘自网络)

【影片参数】:

代码

    ²³                     Presents    Shine a Light (2008)                                ³±
    ²³                                                                                     ³±
    ²³                     Shine.a.Light.(2008).LiMiTED.DVDRip.AC3.XviD-MANiK              ³±
    ²³                                                                                     ³±
    ²³                     Genre           Documentary                                     ³±
    ²³                     LaNGuaGe        English                                         ³±
    ²³                     ReLeaSe DaTe    Jul 16, 2008                                    ³±
    ²³                     STReeT DaTe     Jul 29, 2008                                    ³±
    ²³                     RiPPeR          MANiK                                           ³±
    ²³                                                                                     ³±
    ²³                                                                                     ³±
    ²³      Format                           : AVI                                         ³±
    ²³      Format/Info                      : Audio Video Interleave                      ³±
    ²³      File size                        : 1.46 GiB                                    ³±
    ²³      Overal bit rate                  : 1719 Kbps                                   ³±
    ²³      Writing application              : VirtualDubMod 1.5.4.1 (build 2178/release)  ³±
    ²³      Writing library                  : VirtualDubMod build 2178/release            ³±
    ²³                                                                                     ³±
    ²³      Video:                                                                         ³±
    ²³      Format                           : MPEG-4 Visual                               ³±
    ²³      Format profile                   : Streaming Video@L1                          ³±
    ²³      Format settings, BVOP            : Yes                                         ³±
    ²³      Format settings, QPel            : No                                          ³±
    ²³      Format settings, GMC             : No warpoints                                ³±
    ²³      Codec ID                         : XVID                                        ³±
    ²³      Codec ID/Hint                    : XviD                                        ³±
    ²³      Duration                         : 2h 2mn                                      ³±
    ²³      Bit rate                         : 1264 Kbps                                   ³±
    ²³      Width                            : 720 pixel(s)                                ³±
    ²³      Height                           : 416 pixel(s)                                ³±
    ²³      Display aspect ratio             : 16/9                                        ³±
    ²³      Frame rate                       : 23.976 fps                                  ³±
    ²³      Resolution                       : 8 bits                                      ³±
    ²³      Colorimetry                      : 4:2:0                                       ³±
    ²³      Scan type                        : Progressive                                 ³±
    ²³      Bits/(Pixel*Frame)               : 0.176                                       ³±
    ²³      Stream size                      : 1.08 GiB                                    ³±
    ²³      Writing library                  : XviD 1.2.0.dev47 (UTC 2006-11-01)           ³±
    ²³                                                                                     ³±
    ²³      Audio:                                                                         ³±
    ²³      Format                           : AC-3                                        ³±
    ²³      Format/Info                      : Audio Coding 3                              ³±
    ²³      Codec ID                         : 2000                                        ³±
    ²³      Duration                         : 2h 2mn                                      ³±
    ²³      Bit rate mode                    : Constante                                   ³±
    ²³      Bit rate                         : 448 Kbps                                    ³±
    ²³      Channel(s)                       : 6 channel/channels                          ³±
    ²³      Channel positions                : Front: L C R, Rear: L R, LFE                ³±
    ²³      Sampling rate                    : 48.0 KHz                                    ³±
    ²³      Stream size                      : 391 MiB                                     ³±
    


【影片截图】:
IPB Image
IPB Image

正在读取……

这里是其它用户补充的资源(我也要补充):

暂无补充资源
正在加载,请稍等...

点击查看所有14网友评论

 

(?) [公告]留口水、评论相关规则 | [活动]每日签到 轻松领取电驴经验

    小贴士:
  1. 类似“顶”、“沙发”之类没有营养的文字,对勤劳贡献的楼主来说是令人沮丧的反馈信息。
  2. 提问之前请再仔细看一遍楼主的说明,或许是您遗漏了。
  3. 勿催片。请相信驴友们对分享是富有激情的,如果确有更新版本,您一定能搜索到。
  4. 请勿到处挖坑绊人、招贴广告。既占空间让人厌烦,又没人会搭理,于人于己都无利。
  5. 如果您发现自己的评论不见了,请参考以上4条。