v

您的位置:VeryCD综艺科教节目

综艺资源事务区


《现代艺术之城洛杉矶》(The Cool School)[DVDRip]

  • 状态: 精华资源
  • 摘要:
    发行时间2008年03月28日
    地区美国
    语言英语
  • 时间: 2008/08/04 16:24:46 发布 | 2008/08/04 18:49:05 更新
  • 分类: 综艺  科教节目 

喵喵驴驴

精华资源: 133

全部资源: 134

相关: 分享到新浪微博   转播到腾讯微博   分享到开心网   分享到人人   分享到QQ空间   订阅本资源RSS更新   美味书签  subtitle
该内容尚未提供权利证明,无法提供下载。
中文名现代艺术之城洛杉矶
英文名The Cool School
资源格式DVDRip
发行时间2008年03月28日
主持人Morgan Neville
地区美国
语言英语
简介

IPB Image

【原 片 名】:The Cool School
【中 文 名】:现代艺术之城洛杉矶
【出品年代】:2008
【国  家】:美国
【类  型】:社会/艺术/纪录
【IMDB链接】:IMDB
【IMDB评分】:6.9/10 (26 votes)
【语  言】:英语
【字  幕】:无
【供源状况】:非自己供源

【内容简介】:
  本片导演摩根・内维尔采取了一个活泼而独到的视角,向观众展示了洛杉矶在摇滚乐时代仿效巴黎左岸艺术思潮的一段令人大开眼界的历史,也是美国现代艺术史上鲜为人知的一章。著名的佛若士画廊是当年洛杉机的独立艺术家的先锋阵地,当年的亲历者将向观众讲述往事,一些波普艺术家——包括Ed Kienholz和Ed Ruscha——在这里无忧无虑地创作,不受东海岸的流行左右。5、60年代的洛杉机遗留至今的艺术气息已成为这个城市的珍宝;这座天使之城就是时尚的代名词。 (by 喵喵驴驴)
Documentarian Morgan Neville takes an appropriately lively, left-field approach to The Cool School's eye-opening history of the Beat-era Left Coast art scene — a lesser-known chapter in the story of American modern art. Those who lived it tell the story of the influential Ferus Gallery, a Los Angeles outpost of scrappy artists — among them Ed Kienholz and Ed Ruscha — who worked blithely independent of prevailing East Coast trends. The rare footage of '50s and '60s L.A. alone is a treasure; the City of Angels has rarely looked so hip. Bonus: cool music from the likes of Charles Mingus and the Velvet Underground.

【影片参数】:

代码
General:

Format                           : AVI
Format/Info                      : Audio Video Interleave
File size                        : 699 MiB
Duration                         : 1h 25mn
Overal bit rate                  : 1147 Kbps
Writing application              : VirtualDubMod 1.5.4.1 (build 2178/release)
Writing library                  : VirtualDubMod build 2178/release

Vídeo:

Format                           : MPEG-4 Visual
Format profile                   : Streaming Video@L1
Format settings, BVOP            : Yes
Format settings, QPel            : No
Format settings, GMC             : No warpoints
Format settings, Matrix          : Personalized
Codec ID                         : XVID
Codec ID/Hint                    : XviD
Duration                         : 1h 25mn
Bit rate                         : 1001 Kbps
Width                            : 672 pixel(s)
Height                           : 384 pixel(s)
Display aspect ratio             : 16/9
Frame rate                       : 29.970 fps
Resolution                       : 8 bits
Colorimetry                      : 4:2:0
Scan type                        : Progressive
Bits/(Pixel*Frame)               : 0.129
Stream size                      : 610 MiB
Writing library                  : XviD 1.1.2 (UTC 2006-11-01)

Áudio:

Format                           : MPEG Audio
Format version                   : Version 1
Format profile                   : Layer 3
Codec ID                         : 55
Codec ID/Hint                    : MP3
Duration                         : 1h 25mn
Bit rate mode                    : Variable
Bit rate                         : 132 Kbps
Minimum bit rate                 : 160 Kbps
Channel(s)                       : 2 Channels
Sampling rate                    : 48.0 KHz
Resolution                       : 16 bits
Stream size                      : 80.5 MiB
Writing library                  : LAME3.97
Encoding settings                : ABR


【影片截图】:
IPB Image
IPB Image

正在读取……

这里是其它用户补充的资源(我也要补充):

暂无补充资源
正在加载,请稍等...

点击查看所有10网友评论

 

(?) [公告]留口水、评论相关规则 | [活动]每日签到 轻松领取电驴经验

    小贴士:
  1. 类似“顶”、“沙发”之类没有营养的文字,对勤劳贡献的楼主来说是令人沮丧的反馈信息。
  2. 提问之前请再仔细看一遍楼主的说明,或许是您遗漏了。
  3. 勿催片。请相信驴友们对分享是富有激情的,如果确有更新版本,您一定能搜索到。
  4. 请勿到处挖坑绊人、招贴广告。既占空间让人厌烦,又没人会搭理,于人于己都无利。
  5. 如果您发现自己的评论不见了,请参考以上4条。