v

您的位置:VeryCD音乐古典音乐

音乐资源事务区


Various Artists -《巴洛克百分百》(Best Baroque 100)(6CD Box-set)[FLAC]

  • 状态: 精华资源
  • 摘要:
    发行时间2006年
  • 时间: 2008/08/04 13:43:18 发布 | 2008/09/19 15:08:51 更新
  • 分类: 音乐  古典音乐 

Leonson

精华资源: 78

全部资源: 78

相关: 分享到新浪微博   转播到腾讯微博   分享到开心网   分享到人人   分享到QQ空间   订阅本资源RSS更新   美味书签  subtitle
该内容尚未提供权利证明,无法提供下载。
专辑英文名Best Baroque 100
专辑中文名巴洛克百分百
艺术家Various Artists
资源格式FLAC
版本(6CD Box-set)
发行时间2006年
地区英国
简介

IPB Image


唱片公司:EMI
发行编号:0946 365278 2 6
录音制式:DDD / ADD*
专辑类型:古典
资源出处:Leonson私人CD原版原抓

专辑介绍

巴洛克时期是西方艺术史上的一个时代。

巴洛克一词(Baroque)源出葡萄牙语Barroco,意指“不合常规”,特指外形有瑕疵的珍珠,法语中的形容词Baroque由伊比利亚语(伊比利亚半岛的语言,主要有西班牙语及葡萄牙语等)派生而出,并原封不动地移入英语。巴洛克最早出现于17世纪末叶的艺术批评中,泛指不合常规的、稀奇古怪的、因而也是离经叛道的事物。到了18世纪被用作贬义词,一般指违反自然规律和古典艺术标准的东西。直到19世纪中叶此词仍作为贬义词而不是一种艺术风格的名称。1888年,当时的学者海因里希·韦尔夫林发表了《文艺复兴与巴洛克》一文,才开始对巴洛克风格作出系统的阐述。

巴洛克时期艺术的庄严高贵的特点,源自文艺复兴时期所发展下来的古代艺术精华,并同礼教观念的约束作用相结合,于建筑、绘画、雕塑、音乐、文学等领域给后人留下了大量的不朽之作。

巴洛克时期的艺术形形色色,就对艺术的影响而言,当时有三种文化倾向最为重要:一、反宗教改革运动的出现,这股势力无论在地域还是在思想影响方面日益扩大。一般的观点认为,可能是由于教会在宣传上采取了新的态度,使得巴洛克时期的一些不朽之作(尤其是意大利的绘画和雕塑)得以产生。二、君主专制制度的巩固催生了强大的中产阶级,这对艺术的发展起到了促进的作用。从法国王朝所建立的凡尔赛宫,以及为了中产阶级的需求而发展的绘画市场,都可窥见当时政治及社会发展对艺术的影响。三、哥白尼的日心说、麦哲伦的环球远航以及教会放开对人体解剖的禁令等一系列重大事件的发生,显示了当时科学的发展及人类对地球和大自然的进一步探索。这两方面的活动促使人类对自身有了新的认知。

这些文化倾向连同它们在艺术中的反映,形成了艺术史上所谓的宗教势力和非宗教势力共同维持的一种基本上令人乐观的新的均势。

就其时的音乐而言,最显著的转折发生在17世纪的意大利。古代风格虽然继续风行,但后来仅用于圣乐,而现代风格则逐渐用于非宗教音乐。由于音乐语汇的扩大,圣乐于非宗教音乐之间、声乐风格与器乐风格之间以及民族之间的差异日益凸现出来,促生了鲜活的、具有革新与进步意义的音乐体裁及作品。

如上所述,巴洛克在艺术领域曾存在着褒贬两种含义。18世纪新古典主义者常站在自己的立场用它来嘲弄17世纪的文学艺术风格的无秩序及无视规则的情形,而在音乐史学的研究中认为巴洛克音乐具有的动感的节奏、大小调及和声复调手法的成熟运用有所发展。这个时期音乐的主要特点表现在:一、歌剧艺术在意大利产生并逐渐遍及欧洲各国。二、大小调与和声体系趋于完善,主调音乐成为音乐舞台的主角。三、声乐艺术和器乐作为音乐艺术的两种表现形式,各自独立发展而又互为补充,产生了清歌剧、康塔塔、组曲、大协奏曲等新的音乐体裁,进入了一个全新的历史阶段。

巴洛克不仅在意大利,也在英国、法国和德国等欧洲广大地区产生了巨大的影响,并且在各地的不同历史阶段表现了不同的情形和特征,产生了斯卡拉蒂、亨德尔、蒙特维尔第、珀赛尔、许茨、吕利、维瓦尔第、巴赫等一大批音乐大师以及杰出的音乐作品,谱写了巴洛克音乐的辉煌乐章,同时也为音乐进入古典主义音乐时期奠定了坚实的基础。

《巴洛克百分百》分地域介绍了巴洛克时期作品一百首。乐友可以通过这套CD,去尽情领略300多年前那古老年代的音乐所带给你的典雅与绝美的感受。专辑曲目所给出的中文曲名仅供参考,如有错漏请予指正。每一首曲下面的英文按演奏(唱)者、乐团、指挥、首版年份这个顺序排列,括号里带星号的为数码重新录制的年份。


P.S. 现补增CD附送的繁体中文说明小册扫描件,方便有需要的乐友了解、查看。

特别说明
由于带宽限制,请大家在下载时给予充足的耐性;
本人所发布的任何资源仅供试听之用。有需要的朋友请购买正版CD;
如有乐友转发此帖至其它网站或论坛,请自觉注明原出处为www.VeryCD.com,并给出ED2K链接。

引用
LOG文件

CD1 ........................................CD1

Exact Audio Copy V0.99 prebeta 4 from 23. January 2008

EAC 抓取日志文件从28. 七月 2008, 17:49

Various / Best Baroque 100 CD1

使用驱动器 :PIONEER DVD-RW DVR-112 Adapter: 3 ID: 0

读取模式 : 保护
使用精确流 : 是
废除音频缓冲 : 是
使用 C2 指针 : 否

读取偏移校正 : 48
读取 Lead-In 和 Lead-Out : 是
用静音填充抓取中丢失偏移的采样 : 是
去除首尾静音块 : 否
在 CRC 计算中使用了空样本 : 是
已用接口 : Win NT 及 2000 本地 Win32 接口

所用输出格式 : 用户定义的编码器
已选比特率 : 1024 kBit/s
质量 : 高
添加 ID3 标签 : 否
命令行压缩器 : C:\Program Files\Exact Audio Copy\FLAC\FLAC.EXE
附加命令行参数 : -6 -V -T "ARTIST=%a" -T "TITLE=%t" -T "ALBUM=%g" -T "DATE=%y" -T "TRACKNUMBER=%n" -T "GENRE=%m" -T "COMMENT=%e" %s -o %d


被抓轨 CD 的 TOC

音轨 | 开始 | 长度 | 起始扇区 | 结尾扇区
--------------------------------------------------
1 | 0:00.00 | 5:21.49 | 0 | 24123
2 | 5:21.49 | 1:04.12 | 24124 | 28935
3 | 6:25.61 | 4:17.02 | 28936 | 48212
4 | 10:42.63 | 1:36.03 | 48213 | 55415
5 | 12:18.66 | 10:18.26 | 55416 | 101791
6 | 22:37.17 | 4:53.55 | 101792 | 123821
7 | 27:30.72 | 2:15.40 | 123822 | 133986
8 | 29:46.37 | 7:00.12 | 133987 | 165498
9 | 36:46.49 | 8:57.61 | 165499 | 205834
10 | 45:44.35 | 6:11.45 | 205835 | 233704
11 | 51:56.05 | 2:47.61 | 233705 | 246290
12 | 54:43.66 | 3:59.45 | 246291 | 264260
13 | 58:43.36 | 11:48.74 | 264261 | 317434
14 | 70:32.35 | 5:20.23 | 317435 | 341457


范围状态及错误

已选择范围

文件名 F:\Emule\New Release\Best Baroque 100\Various - Best Baroque 100 CD1.wav

峰值电平 100.0 %
范围质量 100.0 %
复制 CRC 2D795E1B
复制成功

没有错误发生


AccurateRip 概要

音轨 1 无法精确校验 (确认 2) [6B335018], AccurateRip 返回 [4AFBC668]
音轨 2 无法精确校验 (确认 2) [97568B3D], AccurateRip 返回 [0EB3EFFD]
音轨 3 无法精确校验 (确认 2) [6846E1E0], AccurateRip 返回 [FF73D918]
音轨 4 无法精确校验 (确认 2) [5426F9E8], AccurateRip 返回 [E2A6B370]
音轨 5 无法精确校验 (确认 2) [37EDD2F2], AccurateRip 返回 [7F935B52]
音轨 6 无法精确校验 (确认 2) [DC699C75], AccurateRip 返回 [1FE05165]
音轨 7 无法精确校验 (确认 2) [05CBD744], AccurateRip 返回 [99EF84AC]
音轨 8 无法精确校验 (确认 2) [F493F198], AccurateRip 返回 [98397758]
音轨 9 无法精确校验 (确认 2) [ED5BF6F2], AccurateRip 返回 [E3D6229A]
音轨 10 无法精确校验 (确认 2) [284A3EAA], AccurateRip 返回 [9102B24A]
音轨 11 无法精确校验 (确认 2) [98416D73], AccurateRip 返回 [C73CE89B]
音轨 12 无法精确校验 (确认 2) [3137FCFC], AccurateRip 返回 [1DD004F4]
音轨 13 无法精确校验 (确认 2) [E834CD77], AccurateRip 返回 [CA8A51FF]
音轨 14 无法精确校验 (确认 2) [9CC18BAE], AccurateRip 返回 [B58FB8DE]

没有音轨被精确验证
你可能遇到在数据库中的一词多义

状态报告结尾

CD2 ........................................CD2

Exact Audio Copy V0.99 prebeta 4 from 23. January 2008

EAC 抓取日志文件从29. 七月 2008, 15:42

Various / Best Baroque 100 CD2

使用驱动器 :PIONEER DVD-RW DVR-112 Adapter: 3 ID: 0

读取模式 : 保护
使用精确流 : 是
废除音频缓冲 : 是
使用 C2 指针 : 否

读取偏移校正 : 48
读取 Lead-In 和 Lead-Out : 是
用静音填充抓取中丢失偏移的采样 : 是
去除首尾静音块 : 否
在 CRC 计算中使用了空样本 : 是
已用接口 : Win NT 及 2000 本地 Win32 接口

所用输出格式 : 用户定义的编码器
已选比特率 : 1024 kBit/s
质量 : 高
添加 ID3 标签 : 否
命令行压缩器 : C:\Program Files\Exact Audio Copy\FLAC\FLAC.EXE
附加命令行参数 : -6 -V -T "ARTIST=%a" -T "TITLE=%t" -T "ALBUM=%g" -T "DATE=%y" -T "TRACKNUMBER=%n" -T "GENRE=%m" -T "COMMENT=%e" %s -o %d


被抓轨 CD 的 TOC

音轨 | 开始 | 长度 | 起始扇区 | 结尾扇区
--------------------------------------------------
1 | 0:00.00 | 3:07.48 | 0 | 14072
2 | 3:07.48 | 5:21.13 | 14073 | 38160
3 | 8:28.61 | 8:35.54 | 38161 | 76839
4 | 17:04.40 | 4:21.61 | 76840 | 96475
5 | 21:26.26 | 1:39.21 | 96476 | 103921
6 | 23:05.47 | 10:15.25 | 103922 | 150071
7 | 33:20.72 | 8:55.43 | 150072 | 190239
8 | 42:16.40 | 5:42.03 | 190240 | 215892
9 | 47:58.43 | 7:40.69 | 215893 | 250461
10 | 55:39.37 | 5:45.47 | 250462 | 276383
11 | 61:25.09 | 5:17.17 | 276384 | 300175
12 | 66:42.26 | 9:48.56 | 300176 | 344331


范围状态及错误

已选择范围

文件名 F:\Emule\New Release\Best Baroque 100\Various - Best Baroque 100 CD2.wav

峰值电平 100.0 %
范围质量 99.9 %
复制 CRC CD112CB3
复制成功

没有错误发生


AccurateRip 概要

音轨 1 无法精确校验 (确认 2) [832D4B92], AccurateRip 返回 [A1A27822]
音轨 2 无法精确校验 (确认 2) [BC521077], AccurateRip 返回 [7157CDC7]
音轨 3 无法精确校验 (确认 2) [476E4EC9], AccurateRip 返回 [DFBFCEC9]
音轨 4 无法精确校验 (确认 2) [660858D9], AccurateRip 返回 [0A305B41]
音轨 5 无法精确校验 (确认 2) [BCEDCED6], AccurateRip 返回 [2B4820D6]
音轨 6 无法精确校验 (确认 2) [3AD7B058], AccurateRip 返回 [69893E38]
音轨 7 无法精确校验 (确认 2) [F3D763E0], AccurateRip 返回 [AAB6F0F0]
音轨 8 无法精确校验 (确认 2) [494B7996], AccurateRip 返回 [6CD125CE]
音轨 9 无法精确校验 (确认 2) [FFA976A9], AccurateRip 返回 [B75E9571]
音轨 10 无法精确校验 (确认 2) [8A304533], AccurateRip 返回 [61CFB4FB]
音轨 11 无法精确校验 (确认 2) [6D6BFFBB], AccurateRip 返回 [2B42D04B]
音轨 12 无法精确校验 (确认 2) [E3D8FB7D], AccurateRip 返回 [A979086D]

没有音轨被精确验证
你可能遇到在数据库中的一词多义

状态报告结尾

CD3 ........................................CD3

Exact Audio Copy V0.99 prebeta 4 from 23. January 2008

EAC 抓取日志文件从29. 七月 2008, 17:13

Various Artists / Best Baroque 100 CD3

使用驱动器 :PIONEER DVD-RW DVR-112 Adapter: 3 ID: 0

读取模式 : 保护
使用精确流 : 是
废除音频缓冲 : 是
使用 C2 指针 : 否

读取偏移校正 : 48
读取 Lead-In 和 Lead-Out : 是
用静音填充抓取中丢失偏移的采样 : 是
去除首尾静音块 : 否
在 CRC 计算中使用了空样本 : 是
已用接口 : Win NT 及 2000 本地 Win32 接口

所用输出格式 : 用户定义的编码器
已选比特率 : 1024 kBit/s
质量 : 高
添加 ID3 标签 : 否
命令行压缩器 : C:\Program Files\Exact Audio Copy\FLAC\FLAC.EXE
附加命令行参数 : -6 -V -T "ARTIST=%a" -T "TITLE=%t" -T "ALBUM=%g" -T "DATE=%y" -T "TRACKNUMBER=%n" -T "GENRE=%m" -T "COMMENT=%e" %s -o %d


被抓轨 CD 的 TOC

音轨 | 开始 | 长度 | 起始扇区 | 结尾扇区
--------------------------------------------------
1 | 0:00.00 | 2:29.64 | 0 | 11238
2 | 2:29.64 | 3:51.43 | 11239 | 28606
3 | 6:21.32 | 3:38.64 | 28607 | 45020
4 | 10:00.21 | 4:01.09 | 45021 | 63104
5 | 14:01.30 | 4:46.01 | 63105 | 84555
6 | 18:47.31 | 4:00.65 | 84556 | 102620
7 | 22:48.21 | 3:09.32 | 102621 | 116827
8 | 25:57.53 | 3:18.56 | 116828 | 131733
9 | 29:16.34 | 10:00.74 | 131734 | 176807
10 | 39:17.33 | 4:06.25 | 176808 | 195282
11 | 43:23.58 | 10:38.21 | 195283 | 243153
12 | 54:02.04 | 3:28.63 | 243154 | 258816
13 | 57:30.67 | 6:49.14 | 258817 | 289505
14 | 64:20.06 | 3:23.26 | 289506 | 304756
15 | 67:43.32 | 2:59.04 | 304757 | 318185
16 | 70:42.36 | 2:41.71 | 318186 | 330331


范围状态及错误

已选择范围

文件名 F:\Emule\New Release\Best Baroque 100\Various - Best Baroque 100 CD3.wav

峰值电平 100.0 %
范围质量 100.0 %
复制 CRC CC11F4EA
复制成功

没有错误发生


AccurateRip 概要

音轨 1 无法精确校验 (确认 2) [CF774394], AccurateRip 返回 [6ECD7E34]
音轨 2 无法精确校验 (确认 2) [3C7ACEFA], AccurateRip 返回 [A6787BA2]
音轨 3 无法精确校验 (确认 2) [4A47DBCC], AccurateRip 返回 [0805F344]
音轨 4 无法精确校验 (确认 2) [6D92849E], AccurateRip 返回 [5558394E]
音轨 5 无法精确校验 (确认 2) [4A68AE57], AccurateRip 返回 [9B829CD7]
音轨 6 无法精确校验 (确认 2) [D2715EFC], AccurateRip 返回 [56885824]
音轨 7 无法精确校验 (确认 2) [849FC732], AccurateRip 返回 [B5A1C602]
音轨 8 无法精确校验 (确认 2) [B0DE6264], AccurateRip 返回 [FC4D1844]
音轨 9 无法精确校验 (确认 2) [5C3058DD], AccurateRip 返回 [A9E25865]
音轨 10 无法精确校验 (确认 2) [A52B71B8], AccurateRip 返回 [49B4A448]
音轨 11 无法精确校验 (确认 2) [A1117C1B], AccurateRip 返回 [914E002B]
音轨 12 无法精确校验 (确认 2) [86C82269], AccurateRip 返回 [C7D3D2C1]
音轨 13 无法精确校验 (确认 2) [96B7895D], AccurateRip 返回 [56FCBAA5]
音轨 14 无法精确校验 (确认 2) [E49546D6], AccurateRip 返回 [A432F306]
音轨 15 无法精确校验 (确认 2) [4A48F1CD], AccurateRip 返回 [3C32075D]
音轨 16 无法精确校验 (确认 2) [BAC589A6], AccurateRip 返回 [098E924E]

没有音轨被精确验证
你可能遇到在数据库中的一词多义

状态报告结尾

CD4 ........................................CD4

Exact Audio Copy V0.99 prebeta 4 from 23. January 2008

EAC 抓取日志文件从29. 七月 2008, 19:17

Various / Best Baroque 100 CD4

使用驱动器 :PIONEER DVD-RW DVR-112 Adapter: 3 ID: 0

读取模式 : 保护
使用精确流 : 是
废除音频缓冲 : 是
使用 C2 指针 : 否

读取偏移校正 : 48
读取 Lead-In 和 Lead-Out : 是
用静音填充抓取中丢失偏移的采样 : 是
去除首尾静音块 : 否
在 CRC 计算中使用了空样本 : 是
已用接口 : Win NT 及 2000 本地 Win32 接口

所用输出格式 : 用户定义的编码器
已选比特率 : 1024 kBit/s
质量 : 高
添加 ID3 标签 : 否
命令行压缩器 : C:\Program Files\Exact Audio Copy\FLAC\FLAC.EXE
附加命令行参数 : -6 -V -T "ARTIST=%a" -T "TITLE=%t" -T "ALBUM=%g" -T "DATE=%y" -T "TRACKNUMBER=%n" -T "GENRE=%m" -T "COMMENT=%e" %s -o %d


被抓轨 CD 的 TOC

音轨 | 开始 | 长度 | 起始扇区 | 结尾扇区
--------------------------------------------------
1 | 0:00.00 | 2:17.00 | 0 | 10274
2 | 2:17.00 | 1:26.10 | 10275 | 16734
3 | 3:43.10 | 3:13.61 | 16735 | 31270
4 | 6:56.71 | 2:33.54 | 31271 | 42799
5 | 9:30.50 | 16:11.15 | 42800 | 115639
6 | 25:41.65 | 5:08.43 | 115640 | 138782
7 | 30:50.33 | 1:36.47 | 138783 | 146029
8 | 32:27.05 | 5:01.22 | 146030 | 168626
9 | 37:28.27 | 2:42.31 | 168627 | 180807
10 | 40:10.58 | 3:32.25 | 180808 | 196732
11 | 43:43.08 | 3:13.34 | 196733 | 211241
12 | 46:56.42 | 3:08.17 | 211242 | 225358
13 | 50:04.59 | 4:12.11 | 225359 | 244269
14 | 54:16.70 | 5:20.69 | 244270 | 268338
15 | 59:37.64 | 2:17.18 | 268339 | 278631
16 | 61:55.07 | 3:22.04 | 278632 | 293785
17 | 65:17.11 | 1:37.33 | 293786 | 301093
18 | 66:54.44 | 1:53.11 | 301094 | 309579
19 | 68:47.55 | 5:37.21 | 309580 | 334875
20 | 74:25.01 | 3:16.25 | 334876 | 349600


范围状态及错误

已选择范围

文件名 F:\Emule\New Release\Best Baroque 100\Various - Best Baroque 100 CD4.wav

峰值电平 100.0 %
范围质量 100.0 %
复制 CRC E7684462
复制成功

没有错误发生


AccurateRip 概要

音轨 1 无法精确校验 (确认 2) [186B7F00], AccurateRip 返回 [223AC3A0]
音轨 2 无法精确校验 (确认 2) [D809A397], AccurateRip 返回 [90177617]
音轨 3 无法精确校验 (确认 2) [B026BE44], AccurateRip 返回 [739106CC]
音轨 4 无法精确校验 (确认 2) [EB4DE81C], AccurateRip 返回 [78167624]
音轨 5 无法精确校验 (确认 2) [AFF860C7], AccurateRip 返回 [BCAAE137]
音轨 6 无法精确校验 (确认 2) [E76327FE], AccurateRip 返回 [F82E9DBE]
音轨 7 无法精确校验 (确认 2) [910FA624], AccurateRip 返回 [D65BB4BC]
音轨 8 无法精确校验 (确认 2) [D3E31083], AccurateRip 返回 [F61A6893]
音轨 9 无法精确校验 (确认 2) [905F4001], AccurateRip 返回 [B47D0D71]
音轨 10 无法精确校验 (确认 2) [AE524CAD], AccurateRip 返回 [1434AE35]
音轨 11 无法精确校验 (确认 2) [65848BAF], AccurateRip 返回 [AAA62FE7]
音轨 12 无法精确校验 (确认 2) [D874911C], AccurateRip 返回 [266FBB44]
音轨 13 无法精确校验 (确认 2) [EF8A205B], AccurateRip 返回 [1BA9CDBB]
音轨 14 无法精确校验 (确认 2) [AF4AA421], AccurateRip 返回 [D2C52981]
音轨 15 无法精确校验 (确认 2) [AC92B264], AccurateRip 返回 [3EA1B14C]
音轨 16 无法精确校验 (确认 2) [22CC64A9], AccurateRip 返回 [16E61089]
音轨 17 无法精确校验 (确认 2) [34BE71C2], AccurateRip 返回 [087F4F92]
音轨 18 无法精确校验 (确认 2) [6BBDABED], AccurateRip 返回 [467D0465]
音轨 19 无法精确校验 (确认 2) [6078933F], AccurateRip 返回 [0A0A91BF]
音轨 20 无法精确校验 (确认 2) [211E174D], AccurateRip 返回 [B8B134A5]

没有音轨被精确验证
你可能遇到在数据库中的一词多义

状态报告结尾

CD5 ........................................CD5

Exact Audio Copy V0.99 prebeta 4 from 23. January 2008

EAC 抓取日志文件从30. 七月 2008, 15:02

Various Artists / Best Baroque 100 CD5

使用驱动器 :PIONEER DVD-RW DVR-112 Adapter: 3 ID: 0

读取模式 : 保护
使用精确流 : 是
废除音频缓冲 : 是
使用 C2 指针 : 否

读取偏移校正 : 48
读取 Lead-In 和 Lead-Out : 是
用静音填充抓取中丢失偏移的采样 : 是
去除首尾静音块 : 否
在 CRC 计算中使用了空样本 : 是
已用接口 : Win NT 及 2000 本地 Win32 接口

所用输出格式 : 用户定义的编码器
已选比特率 : 1024 kBit/s
质量 : 高
添加 ID3 标签 : 否
命令行压缩器 : C:\Program Files\Exact Audio Copy\FLAC\FLAC.EXE
附加命令行参数 : -6 -V -T "ARTIST=%a" -T "TITLE=%t" -T "ALBUM=%g" -T "DATE=%y" -T "TRACKNUMBER=%n" -T "GENRE=%m" -T "COMMENT=%e" %s -o %d


被抓轨 CD 的 TOC

音轨 | 开始 | 长度 | 起始扇区 | 结尾扇区
--------------------------------------------------
1 | 0:00.00 | 3:40.01 | 0 | 16500
2 | 3:40.01 | 1:55.69 | 16501 | 25194
3 | 5:35.70 | 4:34.45 | 25195 | 45789
4 | 10:10.40 | 2:15.27 | 45790 | 55941
5 | 12:25.67 | 4:47.47 | 55942 | 77513
6 | 17:13.39 | 4:22.26 | 77514 | 97189
7 | 21:35.65 | 2:34.31 | 97190 | 108770
8 | 24:10.21 | 6:51.40 | 108771 | 139635
9 | 31:01.61 | 4:17.27 | 139636 | 158937
10 | 35:19.13 | 2:37.60 | 158938 | 170772
11 | 37:56.73 | 2:18.22 | 170773 | 181144
12 | 40:15.20 | 3:39.12 | 181145 | 197581
13 | 43:54.32 | 4:31.03 | 197582 | 217909
14 | 48:25.35 | 5:52.32 | 217910 | 244341
15 | 54:17.67 | 4:27.07 | 244342 | 264373
16 | 58:44.74 | 2:34.01 | 264374 | 275924
17 | 61:19.00 | 2:59.06 | 275925 | 289355
18 | 64:18.06 | 9:14.08 | 289356 | 330913
19 | 73:32.14 | 2:19.41 | 330914 | 341379
20 | 75:51.55 | 2:33.62 | 341380 | 352916


范围状态及错误

已选择范围

文件名 F:\Emule\New Release\Best Baroque 100\Various - Best Baroque 100 CD5.wav

峰值电平 99.9 %
范围质量 100.0 %
复制 CRC 3BF5CF74
复制成功

没有错误发生


AccurateRip 概要

音轨 1 无法精确校验 (确认 2) [CA91069B], AccurateRip 返回 [E58FAACB]
音轨 2 无法精确校验 (确认 2) [5C686126], AccurateRip 返回 [00E02826]
音轨 3 无法精确校验 (确认 2) [73EE0457], AccurateRip 返回 [8FDEF7C7]
音轨 4 无法精确校验 (确认 2) [64507FA9], AccurateRip 返回 [CC5726D9]
音轨 5 无法精确校验 (确认 2) [9C2635AF], AccurateRip 返回 [03F08B87]
音轨 6 无法精确校验 (确认 2) [3CBC7D1C], AccurateRip 返回 [A4C1CE04]
音轨 7 无法精确校验 (确认 2) [9B738277], AccurateRip 返回 [41108609]
音轨 8 无法精确校验 (确认 2) [5A8781DD], AccurateRip 返回 [46820617]
音轨 9 无法精确校验 (确认 2) [585F56AC], AccurateRip 返回 [6E29E2BC]
音轨 10 无法精确校验 (确认 2) [798F63F6], AccurateRip 返回 [07BE7FD6]
音轨 11 无法精确校验 (确认 2) [D0C2FFED], AccurateRip 返回 [C8B57585]
音轨 12 无法精确校验 (确认 2) [AFCC6B83], AccurateRip 返回 [53E2C72B]
音轨 13 无法精确校验 (确认 2) [A871460D], AccurateRip 返回 [2BA0A85D]
音轨 14 无法精确校验 (确认 2) [D749F891], AccurateRip 返回 [C3A3E0B1]
音轨 15 无法精确校验 (确认 2) [F3EDC1BE], AccurateRip 返回 [A86F5766]
音轨 16 无法精确校验 (确认 2) [245ABF3B], AccurateRip 返回 [0DE84AA3]
音轨 17 无法精确校验 (确认 2) [91E24592], AccurateRip 返回 [57E457B2]
音轨 18 无法精确校验 (确认 2) [79F89161], AccurateRip 返回 [380F5C91]
音轨 19 无法精确校验 (确认 2) [4DD228BD], AccurateRip 返回 [0168CFE5]
音轨 20 无法精确校验 (确认 2) [FDB93912], AccurateRip 返回 [9DE15722]

没有音轨被精确验证
你可能遇到在数据库中的一词多义

状态报告结尾

CD6 ........................................CD6

Exact Audio Copy V0.99 prebeta 4 from 23. January 2008

EAC 抓取日志文件从30. 七月 2008, 15:37

Various Artists / Best Baroque 100 CD6

使用驱动器 :PIONEER DVD-RW DVR-112 Adapter: 3 ID: 0

读取模式 : 保护
使用精确流 : 是
废除音频缓冲 : 是
使用 C2 指针 : 否

读取偏移校正 : 48
读取 Lead-In 和 Lead-Out : 是
用静音填充抓取中丢失偏移的采样 : 是
去除首尾静音块 : 否
在 CRC 计算中使用了空样本 : 是
已用接口 : Win NT 及 2000 本地 Win32 接口

所用输出格式 : 用户定义的编码器
已选比特率 : 1024 kBit/s
质量 : 高
添加 ID3 标签 : 否
命令行压缩器 : C:\Program Files\Exact Audio Copy\FLAC\FLAC.EXE
附加命令行参数 : -6 -V -T "ARTIST=%a" -T "TITLE=%t" -T "ALBUM=%g" -T "DATE=%y" -T "TRACKNUMBER=%n" -T "GENRE=%m" -T "COMMENT=%e" %s -o %d


被抓轨 CD 的 TOC

音轨 | 开始 | 长度 | 起始扇区 | 结尾扇区
--------------------------------------------------
1 | 0:00.00 | 3:14.07 | 0 | 14556
2 | 3:14.07 | 8:02.73 | 14557 | 50779
3 | 11:17.05 | 5:04.45 | 50780 | 73624
4 | 16:21.50 | 3:45.35 | 73625 | 90534
5 | 20:07.10 | 2:41.62 | 90535 | 102671
6 | 22:48.72 | 7:03.01 | 102672 | 134397
7 | 29:51.73 | 5:09.19 | 134398 | 157591
8 | 35:01.17 | 6:25.45 | 157592 | 186511
9 | 41:26.62 | 1:21.24 | 186512 | 192610
10 | 42:48.11 | 2:11.40 | 192611 | 202475
11 | 44:59.51 | 10:17.40 | 202476 | 248790
12 | 55:17.16 | 2:13.49 | 248791 | 258814
13 | 57:30.65 | 1:53.18 | 258815 | 267307
14 | 59:24.08 | 2:03.05 | 267308 | 276537
15 | 61:27.13 | 5:27.43 | 276538 | 301105
16 | 66:54.56 | 5:15.73 | 301106 | 324803
17 | 72:10.54 | 5:02.45 | 324804 | 347498
18 | 77:13.24 | 2:05.09 | 347499 | 356882


范围状态及错误

已选择范围

文件名 F:\Emule\New Release\Best Baroque 100\Various - 100 Best Baroque CD6.wav

峰值电平 100.0 %
范围质量 99.9 %
复制 CRC CE161EEC
复制成功

没有错误发生


AccurateRip 概要

音轨 1 无法精确校验 (确认 2) [50913C5B], AccurateRip 返回 [B7F1F39B]
音轨 2 无法精确校验 (确认 2) [9F66C8A4], AccurateRip 返回 [1EE74694]
音轨 3 无法精确校验 (确认 2) [CBCAA878], AccurateRip 返回 [07B4C250]
音轨 4 无法精确校验 (确认 2) [BA8F0674], AccurateRip 返回 [6BF20E24]
音轨 5 无法精确校验 (确认 2) [D5FD5D0D], AccurateRip 返回 [8D6F5C85]
音轨 6 无法精确校验 (确认 2) [2DE9E37D], AccurateRip 返回 [D2B95415]
音轨 7 无法精确校验 (确认 2) [76B6065D], AccurateRip 返回 [909764BD]
音轨 8 无法精确校验 (确认 2) [45EF805E], AccurateRip 返回 [0EEF106E]
音轨 9 无法精确校验 (确认 2) [1A9CDD72], AccurateRip 返回 [E07350CA]
音轨 10 无法精确校验 (确认 2) [9419C3C2], AccurateRip 返回 [2AA75222]
音轨 11 无法精确校验 (确认 2) [AF734321], AccurateRip 返回 [2B200979]
音轨 12 无法精确校验 (确认 2) [741AB196], AccurateRip 返回 [C80E797E]
音轨 13 无法精确校验 (确认 2) [340937C2], AccurateRip 返回 [7DDC1A7A]
音轨 14 无法精确校验 (确认 2) [C82DD1FD], AccurateRip 返回 [0D2005ED]
音轨 15 无法精确校验 (确认 2) [2588CD55], AccurateRip 返回 [F2800F65]
音轨 16 无法精确校验 (确认 2) [7A71B500], AccurateRip 返回 [CBE4EAE8]
音轨 17 无法精确校验 (确认 2) [D42CB8EA], AccurateRip 返回 [DC5C56B2]
音轨 18 无法精确校验 (确认 2) [2F3F12E5], AccurateRip 返回 [C756F63D]

没有音轨被精确验证
你可能遇到在数据库中的一词多义

状态报告结尾



专辑曲目

CD1 - England & Baroque 『英格兰与巴洛克』

01. HANDEL: Zadok the Priest
亨德尔:祭师撒督
Choir of King's College, Cambridge / The Academy of Ancient Music / Stephen Cleobury / 2001

02. CLARKE: The Prince of Denmark's March (Trumpet Voluntary)
克拉克:《小号自由调》 - 丹麦王子进行曲
Crispian Steele-Perkins, trumpet / City of London Baroque Sinfonia / Richard Hickox / 1987

03. DOWLAND: Lachrymae (1604) - Pavane - Lachrymae antique
道兰德:眼泪 - 帕凡舞曲:罗马的眼泪
Fretwork / 1989

04. PURCELL: Abdelazor (or 'The Moor's Revenge') - Rondeau
珀塞尔:《阿普代拉泽》(又名《莫尔的复仇》) - 古回旋曲
Taverner Players / Andrew Parrott / 1989

05. TALLIS: Spem in alium
塔利斯:歌唱与赞美
Taverner Consort & Choir / Andrew Parrott / 1989

06. BYRD: With lilies white
伯德:洁白的百合花
Gerard Lesne, countertenor / Ensemble Orlando Gibbsons / 1998

07. PURCELL: Dido & Aeneas - Overture
珀塞尔:歌剧《狄朵和埃涅阿斯》 - 序曲
Susan Graham, soprano / European Voices / Le Concert d'Astree / Emmanuelle Haim / 2003

08. PURCELL: Dido & Aeneas - Act III. Your counsel all ... Great minds ... Thy hand, Belinda ... When I am laid in earth ... With drooping wings
珀塞尔:歌剧《狄朵和埃涅阿斯》 - 第三幕:你的全部忠告 | 伟大的思想 | 贝林达,你的手 | 当我长眠地下 | 垂下双翼
Susan Graham, soprano / European Voices / Le Concert d'Astree / Emmanuelle Haim / 2003

09. PURCELL: Come, ye sons of art - Symphony - Come, ye sons of art, away - Sound the trumpet - Come, ye sons of art
珀塞尔:《来吧,艺术之子》 - 交响曲 - 序曲 - 来吧,艺术之子 - 小号之声 - 来吧,艺术之子
James Bowman & Christopher Robson, countertenors / Orchestra of the Age of Enlightenment / Gustav Leonhardt / 1992

10. PURCELL: O Solitue
珀塞尔:噢,孤独
Nancy Argenta, soprano / Nigel North, lute / Richard Boothby, viola da gamba / Paul Nicolson, harpsichord / 1994

11. HANDEL: Soloman - Arrival of the Queens of Sheba
亨德尔:所罗门 - 席巴女王驾临
Taverner Players / Andrew Parrott / 1989

12. HANDEL: Messiah - Hallelujah
亨德尔:弥赛亚 - 哈利路亚
James Bowman, countertenor / Taverner Choir & Players / Andrew Parrott / 1989

13. HANDEL: Messiah - He was despised
亨德尔:弥赛亚 - 他被蔑视
James Bowman, countertenor / Taverner Choir & Players / Andrew Parrott / 1989

14. HANDEL: Water Music (Suite in D) - Overture - Hornpipe
亨德尔:水上音乐 - D大调第二组曲 - 序曲
London Classical Players / Sir Roger Norrington / 1997

CD2 - The Best of Italian Baroque 『意大利巴洛克音乐精华』

01. HANDEL: Serse - Ombra mai fu
亨德尔:《赛尔斯》 - 绿树成荫
David Daniels, countertenor / Orchestra of the Age of Enlightenment / Sir Roger Norrington / 2000

02. HANDEL: Dixit Dominus (opening chorus)
亨德尔:主的奉献
Taverner Choirs & Players / Andrew Parrott / 1989

03. HANDEL: Giulio Cesare in Egitto - Dall'ondoso periglio ... Aure, deh, per pieta
亨德尔:朱利亚·凯撒在埃及
Stephanie Blythe, contralto / Ensemble Orchestral de Paris / John Nelson / 1989

04. HANDEL: Alcina - Verdi prati
亨德尔:《阿尔辛那》 - 绿色的牧场
Della Jones, mezzo-soprano / City of London Baroque Sinfonia / Richard Hickox / 1986

05. MONTEVERDI: Orfeo - Sinfonia
蒙特威尔第:《奥菲欧》 - 古序曲
Le Concert d'Astree / Emmanuelle Haim / 2002

06. MONTEVERDI: Altri canti d'amor, tenero arciero
蒙特威尔第:我歌唱威猛的兽斗精神
The Consort of Musicke / Anthony Rooley / 1991

07. MONTEVERDI: Beatus vir
蒙特威尔第:愉快的男子汉
Taverner Consort & Players / Andrew Parrott / 2002

08. attrib. MONTEVERDI: L'incoronazione di Poppea - Pur ti miro
蒙特威尔第:《波佩阿的加冕》 - 我也望着你
Arleen Auger, soprano / Della Jones, countertenor / City of London Baroque Orchestra / Richard Hickox / 1988

09. ALBINONI realised Giazotto: Adagio
阿尔比诺尼(贾佐托改编):柔板
Scottish Ensemble / Jonathan Rees / 1991

10. ALLEGRI: Miserere (extract)
阿莱格里:求主怜悯歌
Choir of King's College, Cambridge / Stephen Cleobury / 1984

11. GABRIELI: Sonata pian' e forte
加里布埃利:钢琴奏鸣曲
Gabrieli Consort & Players / Paul McCreesh / 1990

12. VIVALDI: The Four Seasons - No.2 'Summer' - i. Allegro - ii. Adagio - iii. Presto
维瓦尔第:小提琴协奏曲《四季》 - 第二首:《夏》 - 第一乐章 快板 | 第二乐章 柔板 | 第三乐章 急板
Monica Huggett, violin / Raglan Baroque Players / Nicholas Kraemer / 1990

CD3 - Treasures of Mediterranean Baroque 『地中海巴洛克瑰宝』

01. VIVALDI: Gloria RV589 (opening chorus)
维瓦尔第:荣耀经 - RV589
Taverner Choir, Consort & Players / Andrew Parrott / 1994

02. MARCELLO: Oboe Concerto in C minor - ii. Adagio
马尔切洛:C小调双簧管协奏曲 - 第二乐章 柔板
Ray Still, oboe / Academy of London / Richard Stamp / 1989

03. BOCCHERINI: Guitar Quintet in E - iii. Menuetto
博凯里尼:E大调吉他五重奏 - 第三乐章 小步舞曲
Europa Galante / 2001

04. SCARLATTI: Keyboard Sonata in D minor k9
斯卡拉蒂:D小调钢琴奏鸣曲
Mikhail Pletnev, piano / 1995

05. PERGOLESI: Stabat Mater (opening)
佩尔戈莱西:圣母悼歌
Veronique Gens, soprano / Gerard Lesne, countertenor / Il Seminario Musicale / 1997

06. VIVALDI: Concerto for two mandolins in G RV532 - i. Allegro
维瓦尔第:G大调双曼陀铃协奏曲 - 第一乐章 快板
Giovanni Scaramuzzino & SOnia Maurer, mandolins / Europa Galante / Fabio Biondi / 2002

07. LOTTI: Crucifixus
洛蒂:耶稣十字架
Taverner Consort & Choir / Andrew Parrott / 1991

08. TARTTINI arr. Olivier Dupin: Sonata in G minor 'Devil's Trill' - iii. Allegro
塔尔蒂尼:G小调奏鸣曲《魔鬼的颤音》 - 第三乐章 快板
Jean-Jacques Kantorow, violin / Orchetre d'Auvergne /1994

09. VIVALDI: The Four Seasons - No.1 'Spring' - i. Allegro - ii. Largo e pianissimo sempre - iii. Danza pastorale: Allegro
维瓦尔第:小提琴协奏曲《四季》 - 第一首:《春》 - 第一乐章 快板 - 第二乐章 广板而持续弱奏 - 第三乐章 田园舞曲 快板
Chiara Banchini, violin / Taverner Players / Andrew Parrott / 1991

10. VIVALDI: Recorder Concerto in C RV444 - i. Allegro
维瓦尔第:C大调竖笛协奏曲 - 第一乐章 快板
Michel Sanvoisin, recorder / Orchestre de Chambre de Toulouse / Louis Auriacombe / 1968 (1987*)

11. SOLER: Fandango
索勒:凡丹戈舞曲
Maggie Cole, harpsichord / 1991

12. VICTORIA: O vos omnes
维多利亚:尔济众生
The Sixteen / Harry Christophers / 1991

13. MARTIN Y COLL: Diferencias sobre las Folias
马丁·克尔:佛利亚斯舞曲变奏曲
Hesperion XX / Jordi Savall / 1977 (2000*)

14. ANON: Villancico - Ay luna que reluzes
亚诺:圣诞歌 - 哎,明朗的月亮
Montserrat Figueras, soprano / Hesperion XX / Jordi Savall / 1984

15. MUDARRA: Pavan & Galliard d'Alexandra
穆塔拉:亚历山大的帕凡与加利阿尔德舞曲
Circa 1500 / Nancy Hadden / 1992

16. BOMTEMPO: Messe de requiem consacree Luis De Camoes - Sanctus
蓬唐伯:安魂弥撒曲 - 圣哉经
Chorus & Orchestra of the Gulbenkian Foundadtion / Michel Corboz / 1996

CD4 - The Glory of French Baroque 『法国巴洛克的光辉』

01. PHILIDOR: Marche de triomphe avec des tromphettes et des timbales
菲利多:带有小号与定音鼓的凯旋进行曲
La Simphonie du Marais / Hugo Reyne / 1994

02. LULLY: Marche des mousquetaires
吕利:国王卫队进行曲
La Simphonie du Marais / Hugo Reyne / 1994

03. FRANCOEUR: Symphonies pour le Festin Royal du Comte d'Artois - Contredanse
弗朗克尔:阿尔图斯公爵府皇家宴会交响曲 - 对舞
La Simphonie du Marais / Hugo Reyne / 1993

04. M-A. CHARPENTIER: Marche de triomphe
夏庞蒂埃:凯旋进行曲
Consortium Musicum / Fritz Lehan / 1977 (2000*)

05. DE LALANDE: Symphonies pour les soupers Roi - Caprice de Villers-Cotterets
德·拉朗德:皇家宴会交响曲
Maurice Andre, Bernard Soustrot , Gur Touvron, trumpets / Ensemble Orchestral de Paris / Jean-Pierre Wallez / 1984

06. DAUVERGNE: Chaconne
多韦涅:夏空舞曲
Concerto Koln / 1994

07. M-A. CHARPENTIER: Te Deum - Prelude
凯旋进行曲:感恩赞 - 前奏曲
Les Arts Florissants / William Christie / 2005

08. F. COUPERIN: Messe propre pour les Convents de Religieux et Religieuses - Offertoire
库普兰:用于修道院宗教仪式的弥撒曲 - 为大音栓组的奉献弥撒曲
Jean-Patrice Brosse, organ / St Bertrand de Comminges / 1991

09. M-A. CHARPENTIER: Regina coeli
夏庞蒂埃:天上圣母欢乐吧!
Les Demoiselles de Saint-Cyr / Emmanuel Mandrin / 1995

10. CLERAMBAULT: Panis angelicus
克莱朗博:帕尼斯天使赞
Gerard Lesne, countertenor / Mark Padmore, tenor / Josep-Miquel Ramon i Monzo, bass / Il seminario Musicale / 2000

11. CAMPRA: Requiem - Introit (extract)
康普拉:安魂曲 - 进阶经
Pages de la Chapelle/ La Grande Ecurie la Chambre du Roy / Jean-Claude Malgoire / 1993

12. RAMEAU: In convertendo - Tunc repletum est gaudio nostrum
拉莫:俘囚返锡安赞美耶和华
Le Concert Spirituel / Herve Niquet / 1992

13. DE VISEE - Suite in C minor - La Plainte, ou le Tombeau de Mesdemoiselles de Visee, filles de l'auteur
德维斯:C小调组曲 - 悲歌,作曲家之女,德维斯小姐之墓
Pascal Monteilhet, theorbo / 2000

14. DU BUISSON: Plainte sur la mort de Monsieur Lambert
杜比松:哀叹拉波特先生之死
Gerard Lesne, countertenor / Instrumental ensemble / 1999

15. RAMEAU: Tambourins
拉莫:铃鼓
Trio Sonnerie / 1989

16. MARAIS: Suite in C minor - La Plainte
马雷:C小调组曲 - 叹息
Jerome Hantai, viola da gamba / Pierre Hantai, harpsichrod / Alix Verzier, bass viol / 2000

17. PHILIDOR: Le Canal de Versailles - Overture
菲多利:凡尔赛运河 - 序曲
La Simphonie du Marais / Hugo Reyne / 1994

18. LULLY: Isis - Air des trembleurs: L'Hiver qui nous tourmente s'obstine a nous geler
吕利:爱西斯神 - 颤音咏叹调:依维尔不停的折磨,直至我们心灰意冷
Isabelle Desrochers, soprano / Bernard Deletre, bass / La Simphonie du Marais / Hugo Reyne / 1996

19. RAMEAU: Les Indes galantes - Chaconne
拉莫:殷勤的印地人 - 夏空舞曲
Patrica Petibon, soprano / Les Folies Francaises / Patrick Cohen-Akenine / 2001

20. RAMEAU: Les Indes galantes - Air: Regnez, plaisirs et jeux
拉莫:殷勤的印地人 - 咏叹调 - 权力,愉悦与嬉戏
Patrica Petibon, soprano / Les Folies Francaises / Patrick Cohen-Akenine / 2001

CD5 - Bach and His Time 『巴赫及其时代』

01. PACHELBEL: Canon in D
帕赫贝尔:D大调卡农
Taverner Players / Andrew Parrott / 1988

02. BUXTEHUDE: Canzonetta in A minor, BuxWv 225
布克斯特胡德:A小调小坎佐纳
Nicholas Danby, organ / 1990

03. MONN: Cello Concerto in G minor - iii. Allegro non tanto
蒙恩:G小调大提琴协奏曲 - 第二乐章 不过分的快板
Balazs Mate, cello / Capella Agostino Steffani / Lajos Rovatkay / 2000

04. J.S. BACH: Cantata BWV 147 'Herz und Mund und Tat und Leben' - Jesus bleibet meine Freude
巴赫:第147号康塔塔 - 耶稣,人类愿望之欢乐
Taverner Choir & Players / Andrew Parrott / 1988

05. J.S. BACH: Suite No.3 in D BWV 1068 - Air
巴赫:D大调第三组曲BWV1068 - 咏叹调
English Chamber Orchestra / Philip Ledger / 1989

06. J.S. BACH: Concerto for four harpsichords BWV 1065 - i. Allegro
巴赫:为四架羽管键琴而作的协奏曲BWV1065 - 第一乐章 快板
Bob van Asperen, Bernhardt Klapprott, Marcello Bussi, Carsten Lohff, harpsichords / Melante Amsterdam / Bob van Asperen / 1996

07. J.S. BACH: Toccata & Fugue in D minor BWV 565 - Toccata
巴赫:D小调托卡塔与赋格BWV565 - 托卡塔
Werner Jacob, organ / 2000

08. J.S. BACH: Toccata & Fugue in D minor BWV 565 - Fugue
巴赫:巴赫:D小调托卡塔与赋格BWV565 - 赋格
Werner Jacob, organ / 2000

09. J.S. BACH: Cantata BWV 51 'Jauchzet Gott in allen Landen' - Aria: Jauchzet Gott in allen Landen
巴赫:第51号康塔塔 - 欢呼上帝 - 咏叹调:欢呼上帝
Nancy Argenta, soprano / Cripin Steele-Perkins, trumpet / Ensemble Sonnerie / Monica Huggett / 1989

10. TELEMANN: Suite in A minor - Les Plaisirs
泰勒曼:A小调组曲 - 快乐
David Munrow, recorder / Academy of St. Martins in Fields / Neville Marriner / 1974 (1995*)

11. TELEMANN: Oboe Concerto in F minor - ii. Largo
泰勒曼:F小调双簧管协奏曲 - 第二乐章 广板
Han de Vries, oboe / Melante Amsterdam / Bob van Asperen / 1982

12. J.S. BACH: Cantata BWV 29 'Wir danken dir, Gott, wir danken dir' - Sinfonia
巴赫: 第29号康塔塔 - 上帝,我们感谢你 - 前奏曲
Taverner Players / Andrew Parrott / 1983

13. J.S. BACH: Goldberg Vriations BWV 988 - Aria
巴赫:哥德堡变奏曲BWV988 - 咏叹调
Maggie Cole, harpsichrod / 1989

14. J.S. BACH: St John Passion BWV 245 - Es ist vollbracht
巴赫:圣约翰受难曲BWV245 - Es ist vollbracht
Stephanie Blythe, contralto / Ensemble Orchestral de Paris / John Nelson / 2001

15. J.S. BACH: Brandenburg Concerto No.4 in G BWV 1049 - iii. Presto
巴赫:G大调勃兰登堡协奏曲BWV1049 - 第三乐章 急板
Rachel Beckett & Marion Scott, recorders / Orchestra of the Age of Enlightenment / Monica Huggett, violin & director / 1989

16. J.S. BACH: Cello Suite No.1 in G BWV 1007 - i. Prelude
巴赫:第一首G大调大提琴无伴奏组曲BWV1007 - 第一乐章 前奏曲
Ralph Kirshbaum, cello / 1989

17. J.S. BACH: Magnificat in D BWV 243 - Magnificat anima mea
巴赫:D大调圣母颂歌BWV243 - 我心尊主为大
Nederland Kamerkoor / La Petite Bande / Sigiswald Kuijken / 1989

18. J.S. BACH: Keyboard Concerto in F minor BWV 1056 - i. Allegro-ii. Largo-iii. Presto
巴赫:F小调羽管键琴与弦乐队协奏曲BWV1056 - 第一乐章 快板 | 第二乐章 广板 | 第三乐章 急板
Melante Amsterdam / Bob van Asperen, harpsichord & director / 1993

19. J.S. BACH: Flute Sonata in E flat BWV 1031 - ii. Siciliano
巴赫:降E大调长笛奏鸣曲BWV1031 - 第二乐章 西西里舞曲
Michel Debost, flute / Lionel Rogg, harpsichord / 1979 (2000*)

20. J.S. BACH: Orchestral Suite No.4 in D BWV 1069 - v. La Rejouissance
巴赫:D大调第四号管弦乐组曲BWV - 第五首 欢乐
Boston Early Music Festival / Andrew Parrott / 1993

CD6 - The Genius of Bach 『巴赫的天才』

01. J.S. Bach: Partita No.3 in E for solo violin BWV1006 - i. Preludio
巴赫:为小提琴而作的E大调第三组曲BWV1006 - 第一乐章 前奏曲
Christian Tetzlaff, violin / 1990

02. J.S. Bach: St John Passion BWV 245 - Ruht wohl, ihr heiligen Gebeine
巴赫:圣约翰受难曲BWV245
Taverner Choir, Consort & Players / Andrew Parrott / 1990

03. J.S. Bach: Brandenburg Concerto No.2 in F BWV 1047 - i. Allegro
巴赫:F大调第二勃兰登堡协奏曲BWV1047 - 第一乐章 快板
Rachel Beckett, recorder / Paul Goodwin, oboe / Mark Bennett, trumpet / Orchestra of the Age of Enlightenment / Monica Huggett, violin & director / 1989

04. J.S. Bach: Brandenburg Concerto No.2 in F BWV 1047 - ii. Andante
巴赫:F大调第二勃兰登堡协奏曲BWV1047 - 第二乐章 行板
Rachel Beckett, recorder / Paul Goodwin, oboe / Mark Bennett, trumpet / Orchestra of the Age of Enlightenment / Monica Huggett, violin & director / 1989

05. J.S. Bach: Brandenburg Concerto No.2 in F BWV 1047 - iii. Allegro assai
巴赫:F大调第二勃兰登堡协奏曲BWV1047 - 第三乐章 很快的快板
Rachel Beckett, recorder / Paul Goodwin, oboe / Mark Bennett, trumpet / Orchestra of the Age of Enlightenment / Monica Huggett, violin & director / 1989

06. J.S. Bach: Mass in B minor BWV 232 - Gloria in excelsis ... Et in terra pax
巴赫:B小调弥撒曲BWV232 - 荣耀归于至高的上主
Collegium Vocale Gent / Philippe Herreweghe / 1989

07. J.S. Bach: The Well-tempered Clavier Book 1 - Prelude & Fugue in C BWV 846
巴赫:平均律钢琴曲集BWV846 - 前奏曲与赋格
Bob van Asperen, harpsichord / 1989

08. J.S. Bach: Concerto for two violins in D minor BWV 1043 - ii. Largo ma non tanto
巴赫:为双小提琴而作的D小调协奏曲BWV1043 - 第二乐章 不太过分的慢板
Elizabet Wallfisch & Alison Bury, violins / Orchestra of the Age of Enlightenment / 1993

09. J.S. Bach: Suite in E minor BWV 996 - v. Bourree
巴赫:E小调琉特琴组曲BWV996 - 第五首 布列舞曲
Sharon Isbin, guitar / 1988

10. J.S. Bach: Suite in E minor BWV 996 - vi. Gigue
巴赫:E小调琉特琴组曲BWV996 - 第六首 吉格舞曲
Sharon Isbin, guitar / 1988

11. J.S. Bach: Orchestral Suite No.2 BWV 1067 - i. Ouverture - vi. Menuet - vii. Badinerie
巴赫:B小调第二管弦乐组曲BWV1067 - 第一乐章 前奏曲 | 第六乐章 小步舞曲 | 第七乐章 谐谑曲
English Chamber Orchestra / Philip Ledger / 1990

12. J.S. Bach: Keyborad Partita No.1 in B flat BWV 825 - i. Praludium
巴赫:第一号钢琴古组曲BWV825 - 第一乐章 前奏曲
Gustav Leonhardt, harpsichord / 1992

13. J.S. Bach: Keyborad Partita No.1 in B flat BWV 825 - vi. Gigue
巴赫:第一号钢琴古组曲BWV825 - 第六乐章 吉格舞曲
Gustav Leonhardt, harpsichord / 1992

14. J.S. Bach: Magnificat in D BWV 243 - Deposuit potentes
巴赫:D大调圣母颂歌BWV243 - 把当权者拉下马
Christoph Preguardien, tenor / La Petite Bande / Sigiswald Kuijken / 1989

15. J.S. Bach: Mass in B minor BWV 232 - Agnus Dei
巴赫:B小调弥撒曲BWV232 - 上帝的羔羊
Charles Brett, countertenor / Collegium Vocale Gent / Philippe Herreweghe / 1989

16. W.F. Bach: Keyboard Sonata in E flat - ii. Largo - iii. Presto
W.F. 巴赫:降E大调钢琴奏鸣曲 - 第二乐章 广板 | 第三乐章 急板
Christophe Rousset, harpsichord / 1984

17. C.P.E. Bach: Cello Concerto in A H439 - iii. Allegro assai
C.P.E. 巴赫:A大调大提琴协奏曲 - 第三乐章 很快的快板
Anner Bylsma, cello / Orchestra of the Age of Enlightenment / Gustav Leonhardt / 1989

18. C.P.E. Bach: Die Auferstehung und Himmelfahrt Jesu - Triumph! Der furst des Lebens sieget!
C.P.E. 巴赫:耶稣的复活与升天 - 凯旋!君王胜利万岁!
Choir of Collegium Vocale Gent / Orchestra of the Age of Enlightenment / Philippe Herreweghe / 1992

正在读取……

这里是其它用户补充的资源(我也要补充):

暂无补充资源
正在加载,请稍等...

点击查看所有174网友评论

 

(?) [公告]留口水、评论相关规则 | [活动]每日签到 轻松领取电驴经验

    小贴士:
  1. 类似“顶”、“沙发”之类没有营养的文字,对勤劳贡献的楼主来说是令人沮丧的反馈信息。
  2. 提问之前请再仔细看一遍楼主的说明,或许是您遗漏了。
  3. 勿催片。请相信驴友们对分享是富有激情的,如果确有更新版本,您一定能搜索到。
  4. 请勿到处挖坑绊人、招贴广告。既占空间让人厌烦,又没人会搭理,于人于己都无利。
  5. 如果您发现自己的评论不见了,请参考以上4条。