v

您的位置:VeryCD动漫电视动画

动漫资源事务区


《正义战士》(The Centurions)[英文无字幕][65集全][TVRip]

  • 状态: 精华资源
  • 摘要:
    发行时间1985年
    语言英语
  • 时间: 2008/07/23 22:23:38 发布 | 2008/08/02 07:23:17 更新
  • 分类: 动漫  电视动画 

morningsun

精华资源: 11

全部资源: 12

相关: 分享到新浪微博   转播到腾讯微博   分享到开心网   分享到人人   分享到QQ空间   订阅本资源RSS更新   美味书签  subtitle
该内容尚未提供权利证明,无法提供下载。
中文名正义战士
英文名The Centurions
版本[英文无字幕][65集全][TVRip]
发行时间1985年
地区美国
语言英语
简介

IPB Image


【片名】:《 正义战士 》
【字幕】:无
【格式】:AVI
【制作时间】:1985-1987
【发行公司】:Ruby-Spear

【内容介绍】
有四个主人公,三男一女,女的叫“克林斯托.凯恩”(音译)驾驶“天庭号”(音译),男主公叫 艾斯迈克劳德,捷克洛克韦尔,迈克斯瑞。海陆空三大主角 。邪恶的一方叫“钛摩”(音译)博士,很丑。 配音演员里有王晓燕 里面经典的一句是"神力无敌!" 那个疯狂的博士原名叫Dr. Terror(原先是个完整的人,因为事故重伤,自己将自己改造,有一集是他回忆这个情节),他的助手则叫Hacker。博士还有一个女儿。 正义一方里面,身着蓝、黄、绿色战斗服分别是Ace McCloud、Jake Rockwell、Max Ray,不过后来又增加了两位战士:Rex Charger(大胡子俄罗斯人),John Thunder(美国印第安人)。
负责Sky Vault空间站的那位美女叫Crystal Kane,那只猩猩叫Lucy。 那句“神力无敌”的口号原文是:Man and machine, Power Xtreme!

片头OP中的解说词:

In the near future Doc Terror and his cyborg companion Hacker, unleash their forces to conquer earth.

Only one force can stop this evil: a handful of brave men; in specially created exoframes they can be transported anywhere to fuse with incredible assault weapons. Beamed down from the space station Sky Vault, becoming man and machine,
Power Xtreme!

Max Ray: Brilliant Sea Operations Commander.
Jake Rockwell: Rugged Land Operations Specialist.
Ace McCloud: Daring Air Operations Expert.

Whatever the challenge, they are ready:

Centurions
Power Extreme!


【文件信息】

引用
Centurions - 01 - The Sky Is On Fire.avi
General
Complete name : Centurions - 01 - The Sky Is On Fire.avi
Format : AVI
Format/Info : Audio Video Interleave
File size : 97.8 MiB
Duration : 21mn 36s
Overall bit rate : 632 Kbps
Writing library : VirtualDub build 13130/release
Video
Format : MPEG-4 Visual
Codec ID : DIV3
Codec ID/Hint : DivX 3 Low
Duration : 21mn 36s
Bit rate : 525 Kbps
Width : 400 pixels
Height : 304 pixels
Display aspect ratio : 4/3
Frame rate : 29.970 fps
Resolution : 24 bits
Bits/(Pixel*Frame) : 0.144
Stream size : 81.1 MiB (83%)
Audio
Format : MPEG Audio
Format version : Version 1
Format profile : Layer 3
Codec ID : 55
Codec ID/Hint : MP3
Duration : 21mn 36s
Bit rate mode : Constant
Bit rate : 96.0 Kbps
Channel(s) : 2 channels
Sampling rate : 44.1 KHz
Resolution : 16 bits
Stream size : 14.8 MiB (15%)
Alignment : Split accross interleaves
Interleave, duration : 33 ms (1.00 video frame)
Interleave, preload duration : 457 ms


另外加三个实际文件的截图

IPB Image

IPB Image

IPB Image

正在读取……

这里是其它用户补充的资源(我也要补充):

暂无补充资源
正在加载,请稍等...

点击查看所有164网友评论

 

(?) [公告]留口水、评论相关规则 | [活动]每日签到 轻松领取电驴经验

    小贴士:
  1. 类似“顶”、“沙发”之类没有营养的文字,对勤劳贡献的楼主来说是令人沮丧的反馈信息。
  2. 提问之前请再仔细看一遍楼主的说明,或许是您遗漏了。
  3. 勿催片。请相信驴友们对分享是富有激情的,如果确有更新版本,您一定能搜索到。
  4. 请勿到处挖坑绊人、招贴广告。既占空间让人厌烦,又没人会搭理,于人于己都无利。
  5. 如果您发现自己的评论不见了,请参考以上4条。