v

您的位置:VeryCD音乐古典音乐

音乐资源事务区


V.A. -《极致:小提琴古典名曲选集》(Ultimate Violin Classics) DECCA极致系列 (5CD Box-set)[FLAC]

  • 状态: 精华资源
  • 摘要:
    发行时间2007年
  • 时间: 2008/07/20 15:36:21 发布 | 2008/07/23 17:20:40 更新
  • 分类: 音乐  古典音乐 

Leonson

精华资源: 78

全部资源: 78

相关: 分享到新浪微博   转播到腾讯微博   分享到开心网   分享到人人   分享到QQ空间   订阅本资源RSS更新   美味书签  subtitle
该内容尚未提供权利证明,无法提供下载。
专辑英文名Ultimate Violin Classics
专辑中文名极致:小提琴古典名曲选集
艺术家V.A.
资源格式FLAC
版本 DECCA极致系列 (5CD Box-set)
发行时间2007年
地区英国
简介

IPB Image

盒装名称:Ultimate Violin Classics, the essential masterpieces (5CD)
唱片公司:Decca
发行编号:475 8371 DB5
录音制式:ADD / DDD
专辑类型:Classical
CD编号:475 8372-6
资源出处:Leonson私人CD原版原抓

专辑介绍

关于DECCA的《Ultimate》系列

DECCA 《Ultimate》系列包括多套5CD一组的主题选集,着重地介绍了各个时代的大师们最有影响力、最广为流传的古典音乐作品,其中包括贝多芬、巴赫、肖邦、柴可夫斯基、莫扎特、舒伯特等的必听之作。此外,该系列还以不同体裁作为类别划分,加入了古典小提琴、大提琴、钢琴、钢琴协奏曲、休闲古典、巴洛克、歌剧等主题选集。虽然这个系列中某些选曲的录音年份有些久远,但演绎者中不乏宗师级的人物,故欣赏价值也是颇高的。全系列由环球公司下属的德国EDC压片生产,品质优良,而封面设计则简约而不失典雅。该系列比较适合初涉古典音乐的朋友欣赏、收藏,通过这套入门级的CD能对古典音乐有一个基本的、初步的认知和了解。而已是古典音乐爱好者的乐友,或许也能从中找到一些自己可能还没有听过的演绎版本。

如需要检索该系列各选集的下载地址,请参看【DECCA《极致》系列的下载地址列表】,地址如下:
http://www.VeryCD.com/groups/@g2121418/705001.topic


此次发布的《小提琴古典名曲选集》收录了门德尔松E小调小提琴协奏曲、布鲁赫G小调第一小提琴协奏曲、圣桑哈瓦涅拉舞曲、引子与回旋随想曲、莫扎特第三、第四、第五小提琴协奏曲、贝多芬“克鲁采”奏鸣曲、“春天”奏鸣曲,以及CD4、CD5中的一些著名小品。中文曲名仅供参考。

部分作品简介

门德尔松:《E小调小提琴协奏曲》作品64
这是门德尔松最后的一部大型管弦乐作品,向来是流传最广、演奏最为频繁的小提琴协奏曲之一,也是小提琴保留曲目的一个重要的组成部分。其通常的演奏时长不超过半小时。今天,它已成为所有胸怀大志的协奏曲小提琴家所必需要掌握的一部小提琴协奏曲,通常也是他们在学习浪漫时期协奏曲作品时必修的一课。许多职业小提琴家都有这部协奏曲的录音,在音乐会和古典音乐比赛上也经常出现该作品的演奏。
1838年,29岁的门德尔松曾答应过要为他的小提琴家好朋友费迪南·大卫写一部小提琴协奏曲,但这个作品却整整花了6年时间才得以完成。延迟了这么久的原因众说纷纭,其中的说法包括他自己对这部作品缺乏自信、这期间主要在从事第三交响曲的创作、在柏林与国王威廉四世闹得不愉快等。但直到首次公开演前,门德尔松一直都与大卫这位极富天分的小提琴家保持着紧密的联系,认真听取大卫就这部协奏曲的意见,而正因为如此,《E小调小提琴协奏曲》也成为第一部有职业小提琴家间接参与创作的小提琴协奏曲。1845年3月,该作品终于在莱比锡首次公开演奏,独奏者为大卫本人,但很遗憾的是,门德尔松由于患病未能亲临指挥,首次公开演奏的指挥棒由一位荷兰指挥家代执了。
虽然该作品是按标准的快-慢-快结构由三个乐章组成,各个乐章也依照传统的形式,但在当时却有着前无古人的独特创意:作品甫一开始即出现了小提琴的演奏,此其一;三个乐章之前的衔接非常紧凑,此其二。而在那时,乐章间不留出点时间让观众鼓鼓掌,那是很让人不知所措的。尽管如此,该作品刚一问世就已大获成功,得到广泛的认同和欢迎,之后不久更被视为最伟大的小提琴协奏曲之一而代代相传下来。该作品是古典音乐浪漫时期最早的一批小提琴协奏曲之一,对其他的许多作曲家的创作产生过很大的影响。

布鲁赫:《G小调第一小提琴协奏曲》作品26
这是最受欢迎的小提琴协奏曲保留曲目的其中一部,众多小提琴家都有它的演奏和录音,实乃布鲁赫最著名的一部作品。虽然布鲁赫还创作了另外两部小提琴协奏曲,但均不及第一协奏曲那么广为人知。
该协奏曲始成于1866年,同年4月由布鲁赫亲任指挥举行了首演。此后,在知名小提琴家约瑟夫·约阿希姆(Joseph Joachim)的帮助下,布鲁赫又对该作品进行了不小的修改,并于1867年最终定稿为我们今天所看见的这个版本。这个最终版的首次公演于1868年初举行,约瑟夫·约阿希姆担任小提琴独奏,赖恩戴勒(Karl Martin Rheinthaler)任指挥。
该小提琴协奏曲由三个乐章组成。第一乐章有些与众不同,它是前奏曲,给人以流畅中充满着期盼的感觉。这个乐章开始时较缓慢,首先由长笛的吹奏带出了旋律。主奏小提琴奏出雄壮而强有力的第一主题,主题的处理方法相当豪迈。不久,主奏小提琴进入娇柔优美的第二主题。旋律经过发展后逐渐平静下来,由此不间断地直接进入第二乐章。
第二乐章为慢板,充满了作者最为得意的旋律美感,也是这部协奏曲的核心乐章。在弦乐器的和弦伴奏下,主奏小提琴奏出甜美而带有冥想性美感的主题。经过了三个主题呈示后,慢慢趋向高潮。最后,开头的主题在几次转调后回到原调,形成结尾。
第三乐章终曲为有活力的快板,奏鸣曲形式。这是强劲有力而华美的终曲。主奏小提琴奏出强劲有力、很有特色的第一主题,这一主题持续了相当长的时间以后,乐曲才移向单纯而有力的第二主题。尾奏是以第一主题为素材,慢慢趋向高潮,最后变成急板,一气呵成地结束全曲。

贝多芬:《A大调第九小提琴奏鸣曲“克鲁采”》作品47
该奏鸣曲创作于1802年,通常也称作“克鲁采”奏鸣曲,是贝多芬所有的小提琴奏鸣曲中,对演奏者的技巧与情感表达要求很高的一首。
第一乐章慢板在引人注目的态势下缓缓展开:小提琴奏出如赞美诗般和谐的双音。整个乐章的主体由急速的快板组成,由a小调的断奏展开。当小提琴开始拉奏出宁静祥和的第二主题时,将全曲转为小调型态,情境豁然开朗。F大调行板乐章长达十五分钟,充满狂热欣喜的美。悠长的主题把温文娴雅的曲风表现至最高点,点缀在随后的四个变奏中,充分流露贝多芬在抒情曲风的功力深度,终乐章激烈的塔兰泰拉舞曲则把全曲带进一泄千里的戏剧性之中。
这部奏鸣曲原本是为小提琴家布利吉陶尔(George Bridgetower)而作的,1802年的首演也由布利吉陶尔和贝多芬共同完成。但在演出后当两人在喝酒庆祝的时候,布利吉陶尔大概是喝高了,辱骂了旁边一位女士,而这位女士却刚好是贝多芬的一个朋友。在盛怒之下,贝多芬向布利吉陶尔要回了曲谱,后又转给了当时公认的最优秀的小提琴家鲁道夫·克鲁采(Rodolphe Kreutzer)。但很具讽刺意味的是,克鲁采从来就没有演奏过这个作品,而且就像当时很多人都将它看作是一部协奏曲那样,此公也认为这部奏鸣曲实在是没法演奏的。就这样,200年来克鲁采的名字一直挂在第九小提琴奏鸣曲上,如果克鲁采本人泉下有知,恐怕也要说声“惭愧”了。

部分演奏者简介

IPB Image
鲁杰罗·里奇(Ruggiero Ricci):
意大利裔美国小提琴家。1918年7月24日出生于加利福尼亚州圣布鲁诺(San Bruno)。尤以演奏帕格尼尼的作品及其录音而闻名。
里奇7岁开始跟随珀辛格(Louis Persinger)学拉小提琴。珀辛格也曾当过Yehudi Menuhin、Camilla Wicks、Louise Behrend、Isaac Stern等知名艺术家的老师,并且师徒同上场,多次担任过里奇独奏会及录音的钢琴伴奏。里奇10岁即在旧金山公演,被誉为神童。11岁即在卡内基音乐厅演奏门德尔松的小提琴协奏曲,获得极大的成功。
二十世纪30年代,里奇前往柏林学习,得到皮阿斯特罗(Michel Piastro)和库伦坎普夫(Georg Kulenkampff)的指导。二战期间应征入伍。从军队退役后,里奇发掘了许多19世纪作曲家创作的、可供他本人独奏的作品。1970-1973年任教于印第安纳大学,1975年起任朱利亚德音乐学院教授。著有《左手的技法》一书。
里奇第一个录制了帕格尼尼的24首小提琴随想曲,其录音丝毫不经剪接,被称为是唱片史上的奇迹。他还第一个在美国首演了帕格尼尼的第四、第六小提琴协奏曲,初演了许多美国当代作曲家的作品,诸如贝克(David Baker)、艾内姆(Gottfied von Einem)、费尔霍夫(Carlos Veerhoff)等。70年的演奏生涯中,他在65个国家演出了 6000 多场音乐会,并录制了 500 多个录音。
里奇属于炫技型演奏家,爆发力强,有着惊人的速度和技巧。他演奏帕格尼尼、萨拉萨蒂等技巧性很强的作品,大都洒脱流畅、极为自如。但也有评论认为他的音乐表现欠缺深度,有过于卖弄技巧之嫌。
里奇收藏有多把价值连城的古典小提琴,包括瓜奈里(Guarneri Del Gesù)、斯托里奥尼(Lorenzo Storioni)、巴利尼柏林(Luiz Bellini)、柯廷奥夫(Curtin & Alf)及雷戈奇(Regazzi)。在其第四次录音演奏帕格尼尼随想曲时,所用的小提琴便是帕格尼尼本人使用过的瓜奈里古董小提琴,由意大利热那亚市政府特批借给里奇使用。

IPB Image
亨瑞克·谢霖( Henryk Szeryng):(1918-1988)
波兰裔墨西哥藉小提琴家,1918年9月22日出生于波兰的Żelazowa Wola,具有波兰及犹太血统。7岁开始在福林克尔(Maurice Frenkel)的指导下学习小提琴演奏,后又前往柏林及巴黎深造,先后从弗莱什(Carl Flesch)及蒂博(Thibaud)学琴。1933年举行首次独奏会,1933-1939年期间在巴黎从巴伦赫(Nadia Boulanger)学习作曲。
二战期间,由于谢霖精通7种语言,他开始为当时的波兰流亡政府从事翻译工作,也周游列国为盟军举办了许多音乐会,其中在墨西哥城的一次演出中,当地一间大学曾力邀谢霖主管其弦乐系。
1946年谢霖加入墨西哥籍,之后将主要的精力都放在了教学上。1954年,谢霖重新开始其音乐会生涯,在纽约首演即搏得满堂喝彩,并从此终其一生活跃在世界舞台上。1988年3月谢霖在当时西德的卡塞尔去世。
谢霖对音乐的表达总是具有思想深度的、并不炫耀的、且对作曲人充满敬意的。谢霖的音乐遗产使其成为20世纪同时期最伟大的小提琴演奏家之一。从他录音演奏的巴赫的小提琴奏鸣曲与变奏曲,以及由钢琴家阿图·鲁宾斯坦伴奏的数首布勃姆斯和贝多芬的奏鸣曲中,都足以窥见其极浓厚的艺术底蕴。
谢霖生前拥有过瓜奈里的“拉杜克”(Le Duc)以及意大利小提琴巨匠安东尼奥·斯特拉底瓦里制作的“戴维王”(King David),均为名贵非凡的小提琴。前者是他演奏和录音时最常用的一把,后者则捐献给了以色列。

IPB Image
大卫·奥伊斯特拉赫(David Oistrakh):
1908-1974,俄国小提琴家兼指挥家,也是小提琴家伊果·奥伊斯特拉赫的父亲。他是第一位在西方世界建立名声的俄国小提家,也是俄国小提琴家的代表人物,在20年代大卫·奥伊斯特拉赫艺术上受到克莱斯勒很大影响,1930年他在全乌克兰小提琴家比赛荣获冠军,同年在华沙韦尼奥夫斯基的国际小提琴大赛获次奖,1937年又在布鲁塞尔的易沙意国际小提琴大赛赢得大奖。40年代与欧柏林、克努舍维兹基组成三重奏,名噪俄国,大战之后并与曼纽因在莫斯科合作巴哈双重协奏曲。1945年首度出国在维也纳演出,直到1954年才正式在伦敦首演,1955年到纽约首演。
奥伊斯特拉赫的琴音有克莱斯勒的自信圆熟,但又融入自己强劲的气势与恢弘格局,是少数能够刚柔并济的小提琴家。奥伊斯特拉赫最为著名的演奏和录音是肖斯塔科维奇的协奏曲。

IPB Image
阿图尔·格吕米奥(Arthur Grumiaux):
比利时小提琴家。1921年3月21日生于维莱佩尔万(Villers-Perwin),幼年从外祖父学琴,9岁入沙勒罗瓦(Charleroi)音乐学院,12岁入布鲁塞尔音乐学院。1940年成为比利时政府演奏荣誉奖的第一名获奖者。1940年春首次举行独奏会。1945年与 BBC 交响乐团合作举行在英国的首演,名噪一时。1949年继杜布瓦任布鲁塞尔音乐学院小提琴教授。1952年在卡内基音乐厅演奏莫扎特的《第三小提琴协奏曲》,1953年在伦敦皇家节日大厅演奏贝多芬的小提琴协奏曲,获得成功,由此成为世界著名演奏家。1986年10月16日逝世于布鲁塞尔。
格吕米奥是法比小提琴派的代表,又有着浓烈的浪漫派风格,演奏音色纯净、典雅,表现出柔美中的静谧。


特别说明
由于带宽限制,请大家在下载时给予充足的耐性;
“专辑曲目”中演绎者英文资料一行最后面的年份为录音制式及录音年份;
本人所发布的任何资源仅供试听之用。有需要的朋友请购买正版CD;
如有乐友转发此帖至其它网站或论坛,请自觉注明原出处为www.VeryCD.com,并给出ED2K链接。

引用
LOG文件

--------------------------------------------------------------------------- CD1

Exact Audio Copy V0.99 prebeta 4 from 23. January 2008

EAC 抓取日志文件从20. 七月 2008, 14:29

Ruggiero Ricci / Ultimate Violin Classics CD1

使用驱动器 :PIONEER DVD-RW DVR-112 Adapter: 3 ID: 0

读取模式 : 保护
使用精确流 : 是
废除音频缓冲 : 是
使用 C2 指针 : 否

读取偏移校正 : 48
读取 Lead-In 和 Lead-Out : 是
用静音填充抓取中丢失偏移的采样 : 是
去除首尾静音块 : 否
在 CRC 计算中使用了空样本 : 是
已用接口 : Win NT 及 2000 本地 Win32 接口

所用输出格式 : 用户定义的编码器
已选比特率 : 1024 kBit/s
质量 : 高
添加 ID3 标签 : 否
命令行压缩器 : C:\Program Files\Exact Audio Copy\FLAC\FLAC.EXE
附加命令行参数 : -6 -V -T "ARTIST=%a" -T "TITLE=%t" -T "ALBUM=%g" -T "DATE=%y" -T "TRACKNUMBER=%n" -T "GENRE=%m" -T "COMMENT=%e" %s -o %d


被抓轨 CD 的 TOC

音轨 | 开始 | 长度 | 起始扇区 | 结尾扇区
--------------------------------------------------
1 | 0:00.33 | 12:54.42 | 33 | 58124
2 | 12:55.00 | 7:37.50 | 58125 | 92449
3 | 20:32.50 | 6:24.33 | 92450 | 121282
4 | 26:57.08 | 7:48.40 | 121283 | 156422
5 | 34:45.48 | 8:19.02 | 156423 | 193849
6 | 43:04.50 | 7:29.18 | 193850 | 227542
7 | 50:33.68 | 9:17.27 | 227543 | 269344
8 | 59:51.20 | 8:29.20 | 269345 | 307539


范围状态及错误

已选择范围

文件名 F:\Emule\Incoming\Ruggiero Ricci - Ultimate Violin Classics CD1.wav

峰值电平 100.0 %
范围质量 100.0 %
复制 CRC 6F1F87D0
复制成功

没有错误发生


AccurateRip 概要

音轨 1 数据库中未见
音轨 2 数据库中未见
音轨 3 数据库中未见
音轨 4 数据库中未见
音轨 5 数据库中未见
音轨 6 数据库中未见
音轨 7 数据库中未见
音轨 8 数据库中未见

没有任何音轨出现在 AccurateRip 数据库中

状态报告结尾

--------------------------------------------------------------------------- CD2

Exact Audio Copy V0.99 prebeta 4 from 23. January 2008

EAC 抓取日志文件从21. 七月 2008, 10:05

Henryk Szeryng / Ultimate Violin Classics CD2

使用驱动器 :PIONEER DVD-RW DVR-112 Adapter: 3 ID: 0

读取模式 : 保护
使用精确流 : 是
废除音频缓冲 : 是
使用 C2 指针 : 否

读取偏移校正 : 48
读取 Lead-In 和 Lead-Out : 是
用静音填充抓取中丢失偏移的采样 : 是
去除首尾静音块 : 否
在 CRC 计算中使用了空样本 : 是
已用接口 : Win NT 及 2000 本地 Win32 接口

所用输出格式 : 用户定义的编码器
已选比特率 : 1024 kBit/s
质量 : 高
添加 ID3 标签 : 否
命令行压缩器 : C:\Program Files\Exact Audio Copy\FLAC\FLAC.EXE
附加命令行参数 : -6 -V -T "ARTIST=%a" -T "TITLE=%t" -T "ALBUM=%g" -T "DATE=%y" -T "TRACKNUMBER=%n" -T "GENRE=%m" -T "COMMENT=%e" %s -o %d


被抓轨 CD 的 TOC

音轨 | 开始 | 长度 | 起始扇区 | 结尾扇区
--------------------------------------------------
1 | 0:00.33 | 10:02.00 | 33 | 45182
2 | 10:02.33 | 8:17.00 | 45183 | 82457
3 | 18:19.33 | 6:34.00 | 82458 | 112007
4 | 24:53.33 | 9:33.00 | 112008 | 154982
5 | 34:26.33 | 6:47.00 | 154983 | 185507
6 | 41:13.33 | 7:31.00 | 185508 | 219332
7 | 48:44.33 | 9:48.00 | 219333 | 263432
8 | 58:32.33 | 9:24.00 | 263433 | 305732
9 | 67:56.33 | 8:50.00 | 305733 | 345482


范围状态及错误

已选择范围

文件名 F:\Emule\Incoming\Henryk Szeryng - Ultimate Violin Classics CD2.wav

峰值电平 97.7 %
范围质量 100.0 %
复制 CRC D708DE8C
复制成功

没有错误发生


AccurateRip 概要

音轨 1 数据库中未见
音轨 2 数据库中未见
音轨 3 数据库中未见
音轨 4 数据库中未见
音轨 5 数据库中未见
音轨 6 数据库中未见
音轨 7 数据库中未见
音轨 8 数据库中未见
音轨 9 数据库中未见

没有任何音轨出现在 AccurateRip 数据库中

状态报告结尾

--------------------------------------------------------------------------- CD3

Exact Audio Copy V0.99 prebeta 4 from 23. January 2008

EAC 抓取日志文件从3. 七月 2008, 19:15

David Oistrakh & Lev Oborin / Ultimate Violin Classics CD3

使用驱动器 :PIONEER DVD-RW DVR-112 Adapter: 3 ID: 0

读取模式 : 保护
使用精确流 : 是
废除音频缓冲 : 是
使用 C2 指针 : 否

读取偏移校正 : 48
读取 Lead-In 和 Lead-Out : 是
用静音填充抓取中丢失偏移的采样 : 是
去除首尾静音块 : 否
在 CRC 计算中使用了空样本 : 是
已用接口 : Win NT 及 2000 本地 Win32 接口

所用输出格式 : 用户定义的编码器
已选比特率 : 1024 kBit/s
质量 : 高
添加 ID3 标签 : 否
命令行压缩器 : C:\Program Files\Exact Audio Copy\FLAC\FLAC.EXE
附加命令行参数 : -6 -V -T "ARTIST=%a" -T "TITLE=%t" -T "ALBUM=%g" -T "DATE=%y" -T "TRACKNUMBER=%n" -T "GENRE=%m" -T "COMMENT=%e" %s -o %d


被抓轨 CD 的 TOC

音轨 | 开始 | 长度 | 起始扇区 | 结尾扇区
--------------------------------------------------
1 | 0:00.33 | 11:43.00 | 33 | 52757
2 | 11:43.33 | 15:26.00 | 52758 | 122207
3 | 27:09.33 | 7:07.00 | 122208 | 154232
4 | 34:16.33 | 10:13.00 | 154233 | 200207
5 | 44:29.33 | 6:06.00 | 200208 | 227657
6 | 50:35.33 | 1:19.00 | 227658 | 233582
7 | 51:54.33 | 7:00.00 | 233583 | 265082


范围状态及错误

已选择范围

文件名 F:\Emule\New Release\Ultimate Violin Classics\David Oistrakh & Lev Oborin - Ultimate Violin Classics CD3.wav

可疑位置 0:58:54

峰值电平 91.3 %
范围质量 99.9 %
复制 CRC 82EDB32B
复制结束

出现错误


AccurateRip 概要

音轨 1 数据库中未见
音轨 2 数据库中未见
音轨 3 数据库中未见
音轨 4 数据库中未见
音轨 5 数据库中未见
音轨 6 数据库中未见
音轨 7 数据库中未见

没有任何音轨出现在 AccurateRip 数据库中

状态报告结尾

--------------------------------------------------------------------------- CD4

Exact Audio Copy V0.99 prebeta 4 from 23. January 2008

EAC 抓取日志文件从4. 七月 2008, 17:05

Arthur Grumiaux / Ultimate Violin Classics CD4

使用驱动器 :PIONEER DVD-RW DVR-112 Adapter: 3 ID: 0

读取模式 : 保护
使用精确流 : 是
废除音频缓冲 : 是
使用 C2 指针 : 否

读取偏移校正 : 48
读取 Lead-In 和 Lead-Out : 是
用静音填充抓取中丢失偏移的采样 : 是
去除首尾静音块 : 否
在 CRC 计算中使用了空样本 : 是
已用接口 : Win NT 及 2000 本地 Win32 接口

所用输出格式 : 用户定义的编码器
已选比特率 : 1024 kBit/s
质量 : 高
添加 ID3 标签 : 否
命令行压缩器 : C:\Program Files\Exact Audio Copy\FLAC\FLAC.EXE
附加命令行参数 : -6 -V -T "ARTIST=%a" -T "TITLE=%t" -T "ALBUM=%g" -T "DATE=%y" -T "TRACKNUMBER=%n" -T "GENRE=%m" -T "COMMENT=%e" %s -o %d


被抓轨 CD 的 TOC

音轨 | 开始 | 长度 | 起始扇区 | 结尾扇区
--------------------------------------------------
1 | 0:00.32 | 1:58.00 | 32 | 8881
2 | 1:58.32 | 7:28.00 | 8882 | 42481
3 | 9:26.32 | 2:50.00 | 42482 | 55231
4 | 12:16.32 | 4:01.00 | 55232 | 73306
5 | 16:17.32 | 2:10.00 | 73307 | 83056
6 | 18:27.32 | 3:31.00 | 83057 | 98881
7 | 21:58.32 | 3:26.00 | 98882 | 114331
8 | 25:24.32 | 2:20.00 | 114332 | 124831
9 | 27:44.32 | 2:55.00 | 124832 | 137956
10 | 30:39.32 | 2:20.00 | 137957 | 148456
11 | 32:59.32 | 2:40.00 | 148457 | 160456
12 | 35:39.32 | 4:21.00 | 160457 | 180031
13 | 40:00.32 | 3:26.00 | 180032 | 195481
14 | 43:26.32 | 4:25.00 | 195482 | 215356
15 | 47:51.32 | 2:08.00 | 215357 | 224956
16 | 49:59.32 | 3:33.00 | 224957 | 240931
17 | 53:32.32 | 2:57.00 | 240932 | 254206
18 | 56:29.32 | 2:01.00 | 254207 | 263281
19 | 58:30.32 | 3:56.00 | 263282 | 280981
20 | 62:26.32 | 2:56.00 | 280982 | 294181
21 | 65:22.32 | 2:38.00 | 294182 | 306031
22 | 68:00.32 | 2:37.00 | 306032 | 317806
23 | 70:37.32 | 3:08.00 | 317807 | 331906
24 | 73:45.32 | 3:30.00 | 331907 | 347656


范围状态及错误

已选择范围

文件名 F:\Emule\New Release\Ultimate Violin Classics\Arthur Grumiaux - Ultimate Violin Classics CD4.wav

峰值电平 98.3 %
范围质量 100.0 %
测试 CRC 5729BFCD
复制 CRC 5729BFCD
复制成功

没有错误发生


AccurateRip 概要

音轨 1 数据库中未见
音轨 2 数据库中未见
音轨 3 数据库中未见
音轨 4 数据库中未见
音轨 5 数据库中未见
音轨 6 数据库中未见
音轨 7 数据库中未见
音轨 8 数据库中未见
音轨 9 数据库中未见
音轨 10 数据库中未见
音轨 11 数据库中未见
音轨 12 数据库中未见
音轨 13 数据库中未见
音轨 14 数据库中未见
音轨 15 数据库中未见
音轨 16 数据库中未见
音轨 17 数据库中未见
音轨 18 数据库中未见
音轨 19 数据库中未见
音轨 20 数据库中未见
音轨 21 数据库中未见
音轨 22 数据库中未见
音轨 23 数据库中未见
音轨 24 数据库中未见

没有任何音轨出现在 AccurateRip 数据库中

状态报告结尾

--------------------------------------------------------------------------- CD5

Exact Audio Copy V0.99 prebeta 4 from 23. January 2008

EAC 抓取日志文件从4. 七月 2008, 18:03

Arthur Grumiaux / Ultimate Violin Classics CD5

使用驱动器 :PIONEER DVD-RW DVR-112 Adapter: 3 ID: 0

读取模式 : 保护
使用精确流 : 是
废除音频缓冲 : 是
使用 C2 指针 : 否

读取偏移校正 : 48
读取 Lead-In 和 Lead-Out : 是
用静音填充抓取中丢失偏移的采样 : 是
去除首尾静音块 : 否
在 CRC 计算中使用了空样本 : 是
已用接口 : Win NT 及 2000 本地 Win32 接口

所用输出格式 : 用户定义的编码器
已选比特率 : 1024 kBit/s
质量 : 高
添加 ID3 标签 : 否
命令行压缩器 : C:\Program Files\Exact Audio Copy\FLAC\FLAC.EXE
附加命令行参数 : -6 -V -T "ARTIST=%a" -T "TITLE=%t" -T "ALBUM=%g" -T "DATE=%y" -T "TRACKNUMBER=%n" -T "GENRE=%m" -T "COMMENT=%e" %s -o %d


被抓轨 CD 的 TOC

音轨 | 开始 | 长度 | 起始扇区 | 结尾扇区
--------------------------------------------------
1 | 0:00.32 | 2:43.00 | 32 | 12256
2 | 2:43.32 | 2:46.00 | 12257 | 24706
3 | 5:29.32 | 4:29.00 | 24707 | 44881
4 | 9:58.32 | 2:39.00 | 44882 | 56806
5 | 12:37.32 | 3:25.00 | 56807 | 72181
6 | 16:02.32 | 4:22.00 | 72182 | 91831
7 | 20:24.32 | 4:27.00 | 91832 | 111856
8 | 24:51.32 | 2:10.00 | 111857 | 121606
9 | 27:01.32 | 7:50.00 | 121607 | 156856
10 | 34:51.32 | 2:53.00 | 156857 | 169831
11 | 37:44.32 | 8:11.00 | 169832 | 206656
12 | 45:55.32 | 2:57.00 | 206657 | 219931
13 | 48:52.32 | 2:52.00 | 219932 | 232831
14 | 51:44.32 | 10:22.00 | 232832 | 279481
15 | 62:06.32 | 6:01.00 | 279482 | 306556
16 | 68:07.32 | 7:52.00 | 306557 | 341956


范围状态及错误

已选择范围

文件名 F:\Emule\New Release\Ultimate Violin Classics\Arthur Grumiaux - Ultimate Violin Classics CD5.wav

峰值电平 94.7 %
范围质量 100.0 %
复制 CRC 40D89154
复制成功

没有错误发生


AccurateRip 概要

音轨 1 数据库中未见
音轨 2 数据库中未见
音轨 3 数据库中未见
音轨 4 数据库中未见
音轨 5 数据库中未见
音轨 6 数据库中未见
音轨 7 数据库中未见
音轨 8 数据库中未见
音轨 9 数据库中未见
音轨 10 数据库中未见
音轨 11 数据库中未见
音轨 12 数据库中未见
音轨 13 数据库中未见
音轨 14 数据库中未见
音轨 15 数据库中未见
音轨 16 数据库中未见

没有任何音轨出现在 AccurateRip 数据库中

状态报告结尾



专辑曲目

CD1. Ultimate Violin Classics 1:
极致 - 小提琴古典名曲选集CD1:


Felix Mendelssohn: Violin Concerto in E minor, Op.64
门德尔松:E小调小提琴协奏曲, Op.64
01. 1. Allegro molto appassionato
02. 2. Andante
03. 3. Allegro non troppo - Allegro molto vivace

Max Bruch: Violin Concerto No.1 in G minor, Op.26
布鲁赫:G小调第一小提琴协奏曲, Op.26
04. 1. Vorspiel (Allegro moderato)
05. 2. Adagio
06. 3. Finale (Allegro energico)

07. Camille Saint-Saëns: Havanaise, Op.83
圣桑:哈伐奈拉, Op.83

08. Camille Saint-Saëns: Introduction et Rondo Capriccioso, Op.28
圣桑:引子和回旋随想曲, Op.28

- Ruggiero Ricci (violin) / London Symphony Orchestra / Piero Gamba (conductor) / ADD 1957 (01-06), 1959 (07, 08)
- 小提琴演奏:鲁杰罗·里奇 - 伦敦交响乐团 - 指挥:皮埃罗·刚巴

CD2. Ultimate Violin Classics 2:
极致 - 小提琴古典名曲选集CD2:


Wolfgang Amadeus Mozart:
莫扎特

Violin Concerto No.3 in G, K.216
G大调第三小提琴协奏曲, K.216
01. 1. Allegro
02. 2. Adagio
03. 3. Rondo (Allegro)

Violin Concerto No.4 in D, K.218
D大调第四小提琴协奏曲, K.218
04. 1. Allegro
05. 2. Andante cantabile
06. 3. Rondeau (Andante grazioso - Allegro ma non troppo)

Violin Concerto No.5 in A, K.219
A大调第五小提琴协奏曲, K.219
07. 1. Allegro aperto
08. 2. Adagio
09. 3. Rondeau (Tempo di minuetto)

- Henryk Szeryng (violin) / New Philharmonia Orchestra / Sir Alexander Gibson (conductor) / ADD 1969 (K.216), 1970 (K.218), 1966 (K.219)
- 小提琴演奏:谢霖 - 新爱乐乐团 - 指挥:亚历山大·吉布森

CD3. Ultimate Violin Classics 3:
极致 - 小提琴古典名曲选集CD3:


Ludwig van Beethoven:
贝多芬

Sonata for Violin and Piano No.9 in A, Op.47 "Kreutzer"
A大调第九号小提琴奏鸣曲“克莱采”, Op.47
01. 1. Adagio sostenuto - Presto
02. 2. Andante con variazioni
03. 3. Finale (Presto)

Sonata for Violin and Piano No.5 in F, Op.24 "Spring"
F大调第五号小提琴奏鸣曲“春天”, Op.24
04. 1. Allegro
05. 2. Adagio molto espressivo
06. 3. Scherzo (Allegro molto)
07. 4. Rondo (Allegro ma non troppo)

- David Oistrakh (violin) / Lev Oborin (piano) / ADD 1962
- 小提琴演奏:大卫·奥伊斯特拉赫 - 钢琴伴奏:列夫·奥博林

CD4. Ultimate Violin Classics 4:
极致 - 小提琴古典名曲选集CD4:


01. Maria Theresia von Paradis: Sicilienne (Arr. Samuel Dushkin)
冯·帕拉迪斯:西西里舞曲
02. Wolfgang Amadeus Mozart: Serenade in D, K.250 "Haffner" (Arr. Kreisler) - 4. Rondo (Allegro)
莫扎特:D大调小夜曲“哈夫纳”, K.250 - 4. 回旋曲
03. Christoph Willibald von Gluck: Melodie from "Orfeo ed Euridice" (Dance of the Blessed Spirits)
格鲁克:选自《奥菲欧与犹丽狄茜》中的旋律(幸福精灵之舞)
04. Enrique Granados: Spanish Dance Op.37, No.5 "Andaluza" (Arr. F.Kreisler)
格拉纳多斯:西班牙舞曲,Op.37/5 “安布罗西亚”
05. Fritz Kreisler: Schön Rosmarin
克莱斯勒:美丽的罗丝玛琳
06. Fritz Kreisler: Liebesleid
克莱斯勒:爱的悲伤
07. Fritz Kreisler: Liebesfreud
克莱斯勒:爱的喜悦
08. Francesco Maria Veracini: Allegro
韦拉奇尼:快板
09. Antonio Vivaldi: Concerto grosso in D minor, Op.3/11, RV 565 - Siciliano
维瓦尔第:协奏曲集, Op.3/11, RV 565 - 西西里舞曲
10. Jean-Marie Leclair: Tambourin
雷克莱:法国长鼓舞曲
11. Ludwig van Beethoven: Minuet in G, WoO 10 No.2
贝多芬:G大调小步舞曲, WoO 10/2
12. Franz Schubert: Ave Maria, "Ellens Gesang III", D839
舒伯特:圣母颂, “埃伦的歌III”, D839
13. Antonín Dvorák: Humoresque in G flat
德沃夏克:降G大调诙谐曲
14. Jules Massenet: Méditation de Thaïs
马斯奈:泰伊思沉思曲
15. Peter Ilyich Tchaikovsky: Valse sentimentale, Op.51, No.6
柴可夫斯基:感伤圆舞曲, Op.51/6
16. Francesco Maria Veracini: Largo (Violin Sonata Op.2 No.6)
韦拉奇尼:广板(小提琴奏鸣曲Op.2/6)
17. Fritz Kreisler: Rondino on a Theme by Beethoven
克莱斯勒:贝多芬主题小回旋曲
18. Fritz Kreisler: Andantino in the style of Padre Martini
克莱斯勒:帕德雷马提尼风格的小行板
19. Sir Edward Elgar: La Capricieuse, Op.17
埃尔加:随想, Op.17
20. Gabriel Fauré: Après un rêve
弗雷:梦后
21. Isaac Albéniz: Tango, Op.165, No.2 (Arr. Fritz Kreisler)
阿尔贝尼斯:探戈舞曲, Op.165/2
22. Franz von Vecsey: Valse Triste
冯·维塞:悲伤圆舞曲
23. Manuel Maria Ponce: Estrellita (Arr. Heifetz)
庞塞: 我的小星星
24. Jean Sibelius: Nocturne, Op.51, No.3 (Arr. M.Press)
西贝柳斯:夜曲, Op.51/3

- Arthur Grumiaux (violin) / Istvan Hajdu (piano) / ADD 1973 (except Track 11 in 1972)
- 小提琴演奏:阿图尔·格吕米奥 - 钢琴伴奏:伊斯特凡·哈伊杜 - 录音时间:第11轨为1972年,余下皆为1973年

CD5. Ultimate Violin Classics 5:
极致 - 小提琴古典名曲选集CD5:


01. Giovanni Battista Pergolesi: Andantino
佩尔戈莱西:小行板
02. Franz Schubert: Schwanengesang, D.957 - Ständchen
舒伯特:天鹅之歌, D.957 - 小夜曲
03. Wolfgang Amadeus Mozart: Divertimento in D, K.334 - 3. Menuetto - Trio - Menuetto
莫扎特:D大调嘻游曲, K.334 - 3. 小步舞曲
04. Robert Schumann: Kinderszenen, Op.15 (arr. for violin and piano) - Träumerei
舒曼:童年情景, Op.15 - 梦幻曲
05. Antonín Dvorák: Sonatina for Violin and Piano in G, Op.100 - 2. Larghetto
德沃夏克:G大调小提琴与钢琴小奏鸣曲, Op.100 - 2. 小广板
06. Charles Gounod: Ave Maria (arr. from Bach's Prelude No.1 BWV 846)
古诺:圣母颂(改编自巴赫第一前奏曲BWV 846)
07. Nicolo Paganini: Sonata No.12, Op.3 No.6
帕格尼尼:第十二号奏鸣曲, Op.3/6
08. Antonín Dvorák: Gypsy Melodies, Op.55, No.4 - Songs My Mother Taught Me
德沃夏克:吉普赛歌曲, Op.55/4 - 妈妈教给我的歌
09. Henryk Wieniawski: Souvenir de Moscou, Op.6
维尼亚夫斯基:莫斯科的回忆, Op.6
10. Maurice Ravel: Pìece en forme de habanera (Arr. G. Catherine)
拉威尔:哈巴涅拉风格曲
11. Pablo de Sarasate: Zigeunerweisen, Op.20
萨拉萨蒂:流浪者之歌, Op.20
12. Joseph-Hector Fiocco: Pièces de clavecin Op.1 (Arr. Bent, O'Neill) - Allegro
约瑟夫·赫克托·菲欧可:大键琴曲集, Op.1 - 快板
13. Gabriel Fauré: Les berceaux, Op.23, No.1
弗雷:摇篮曲, Op.23/1
14. Maurice Ravel: Tzigane
拉威尔:茨冈
15. Ernest Bloch: Baal Shem (Nigun)
布洛赫:美名大师 - 尼根
16. Zoltán Kodály: Adagio for Violin and Piano
科达伊:为小提琴与钢琴而作的慢板

- Arthur Grumiaux (violin) / Istvan Hajdu (piano) / ADD 1973 (01-08), 1962 (09-16)
- 小提琴演奏:阿图尔·格吕米奥 - 钢琴伴奏:伊斯特凡·哈伊杜

正在读取……

这里是其它用户补充的资源(我也要补充):

暂无补充资源
正在加载,请稍等...

点击查看所有308网友评论

 

(?) [公告]留口水、评论相关规则 | [活动]每日签到 轻松领取电驴经验

    小贴士:
  1. 类似“顶”、“沙发”之类没有营养的文字,对勤劳贡献的楼主来说是令人沮丧的反馈信息。
  2. 提问之前请再仔细看一遍楼主的说明,或许是您遗漏了。
  3. 勿催片。请相信驴友们对分享是富有激情的,如果确有更新版本,您一定能搜索到。
  4. 请勿到处挖坑绊人、招贴广告。既占空间让人厌烦,又没人会搭理,于人于己都无利。
  5. 如果您发现自己的评论不见了,请参考以上4条。