v

您的位置:VeryCD综艺新闻综合

综艺资源事务区


《西厢记》[越剧][方亚芬.钱惠丽.张永梅][2008长安大戏院版][剧场版全剧][Apollo](更新完毕)[TVRip]

  • 状态: 精华资源
  • 摘要:
    发行时间2008年
  • 时间: 2008/07/14 14:09:55 发布 | 2008/07/16 11:51:02 更新
  • 分类: 综艺  新闻综合 

楚云

精华资源: 8

全部资源: 8

相关: 分享到新浪微博   转播到腾讯微博   分享到开心网   分享到人人   分享到QQ空间   订阅本资源RSS更新   美味书签  subtitle
该内容尚未提供权利证明,无法提供下载。
中文名西厢记
资源格式TVRip
版本[越剧][方亚芬.钱惠丽.张永梅][2008长安大戏院版][剧场版全剧][Apollo](更新完毕)
发行时间2008年
简介

剧种: 越剧
制作组: Apollo
主演:

方亚芬 .... 崔莺莺
钱惠丽 .... 张生
张永梅 .... 红娘
吴群 .... 崔夫人
金红 .... 法本
吴佳妮 .... 法聪
孙璇 .... 欢郎
赵婷 .... 琴童

IPB Image

2008.05.24 北京长安大戏院演出版,2008.07.12 CCTV-11频道空中剧院播出。附加 2008.07.11 戏曲采风《漫话越剧西厢记》专访。

方亚芬
女,一级演员,浙江宁波人,1965年2月出生,中国戏剧家协会会员、民进上海市委委员。原是浙江镇海越剧团青年演员,1984年11月考入上海市戏曲学校越剧班,工花旦。学习中业务拔尖,1986年9月,被入选《红楼梦》主要演员,赴法国参加巴黎秋季艺术节。1987年戏校毕业后,转入上海越剧院青年剧团挑梁演出。主演过《红楼梦》、《西厢记》、《梨香院》、《风雨大观园》、《莲花女传奇》、《桃李梅》、《风月秦淮》、《啼笑因缘》、《女皇与公主》、《紫玉钗》、新版《红楼梦》、《早春二月》、《蔡锷与小凤仙》、《木棉红》、《救风尘》、《千古情怨》、《祥林嫂》、《玉卿嫂》等戏及越剧电视连续剧《蝴蝶的传说》。在继承袁派艺术上成绩显着,扮演崔莺莺、祥林嫂等角色,广受好评。曾获1988年越剧折子戏三新杯比赛表演奖,1989年三省一市戏曲卡拉 OK比赛一等奖,首届"宝钢高雅艺术奖",第四届上海市白玉兰戏剧表演艺术主角奖,首届中国戏剧奖,梅花表演奖榜首,2008年获上海文艺家荣誉奖。享有 "越剧新星"、上海市优秀青年演员"十佳"称号。2001~2003年度上海市劳动模范。多次赴泰国、法国、新加坡、香港、澳门、台湾等国家和地区演出。出版了多种个人演唱录音盒带及CD专辑。

钱惠丽
女,一级演员。浙江诸暨人,1963年4月出生。中国戏剧家协会会员,上海市政协委员。自幼爱好越剧,1979年高中毕业后考入诸暨越剧团,进县戏校培训,工小生。一出开蒙戏《红楼梦》,因其扮相漂亮嗓音亮丽,脱颖而出,以"哭灵"一折参加绍兴地区青年演员汇演,获优秀演出奖,接着参加浙江省青年演员汇演,获学员表演优秀奖。1981年9月转为诸暨越剧团正式演员,挑起演出的大梁,主演了《红楼梦》、《碧玉簪》等剧目。1983年来上海演出《红楼梦》,得到徐玉兰的指导,一炮打响,后正式拜徐玉兰为师,继承徐派艺术,几度到红楼团习艺。1988年,正式进入上海越剧院,成为红楼剧团领衔演员,主演了《红楼梦》、《西厢记》、《追鱼》、《西施归越》、《紫玉钗》、《真假驸马》、《啼笑因缘》、《玉簪记》、《断指记》、《舞台姐妹》、新版《红楼梦》等剧目。曾获1984年江、浙、沪越剧青年演员电视大奖赛二等奖,1988年全国中青年演员广播大奖赛优秀演员奖,1994年"宝钢高雅艺术奖",两度获得上海市白玉兰戏剧表演主角奖,中国戏剧梅花奖和第九届文华表演奖。享有"越剧之星"、上海市优秀青年演员"十佳"的荣誉称号。多次赴泰国、新加坡、香港、台湾等国家和地区演出。享受国务院有突出贡献专家的政府特殊津贴。出版过个人戏曲CD专辑及十多种音像制品,1993年1月知识出版社出版了《越剧之星——钱惠丽》。现任副院长兼红楼剧团团长。

张永梅
女,一级演员。1969年1月出生,籍贯江苏。1985年考入上海市戏曲学校越剧班,1989年毕业,转入上海越剧院青年团任演员,艺术上宗吕(瑞英)派。曾在《打金枝》、《红楼梦》、《西厢记》、《风月秦淮》、《桃李梅》、《梨香院》、《风雨大观园》、《七叶一枝花》、《梦里云间》、《杨乃武》、新版《红楼梦》、《梅龙镇》(获第七届中国戏剧节优秀表演奖)等戏中,担任主角或重要配角。曾获1988年全国青年越剧演员大选赛“荧屏奖”、1990年江、浙、沪戏曲卡拉OK大奖赛“优秀演唱奖”、1994年“凯华杯”全国歌戏双栖明星广播演唱大赛三等奖。多次赴泰国、香港、澳门、台湾等国家和地区演出。

剧情介绍
唐贞元间书生张珙,在普救寺邂逅已故崔相国之女莺莺,惊为天人,心生爱慕。而莺莺亦十分留意张生。时河桥守将孙飞虎兵围普救寺,强索莺莺为妻,崔夫人当众许愿:有退得贼兵者以莺莺许之,张珙驰函好友白马将军杜确发兵解围。然崔夫人嫌张贫寒而赖婚,张珙相思成疾,莺莺在侍婢红娘撮合下,夜奔西厢探慰张珙,事为崔夫人发觉,拷问红娘,红娘据实以告。夫人不得已而将莺莺许配张珙,但又借口不招白衣女婿,迫张上京赶考,莺莺与张珙满怀离愁而别。

原始截图:
IPB Image

IPB Image

IPB Image

IPB Image

IPB Image

IPB Image

代码

General #0
Complete name                    : 西厢记.01.惊艳[越剧][方亚芬.钱惠丽.张永梅][2008长安大戏院版][剧场版全剧][TVRip-MP4][Apollo].mp4
Format                           : MPEG-4
File size                        : 114 MiB
Duration                         : 20mn 47s
Overal bit rate                  : 769 Kbps

Video #0
Format/Info                      : Advanced Video Codec
Format profile                   : Main@L3.0
Format settings, CABAC           : Yes
Bit rate mode                    : VBR
Bit rate                         : 704 Kbps
Maximum bit rate                 : 1525 Kbps
Width                            : 640 pixels
Height                           : 480 pixels
Display aspect ratio             : 4/3
Frame rate mode                  : Constant
Frame rate                       : 25.000 fps
Stream size                      : 105 MiB

Audio #0
Format/Info                      : Advanced Audio Codec
Bit rate mode                    : VBR
Bit rate                         : 59.8 Kbps
Maximum bit rate                 : 73.1 Kbps
Channel(s)                       : 1 channel
Sampling rate                    : 44.1 KHz
Resolution                       : 16 bits
Stream size                      : 8.90 MiB

电视卡采集,DVD 格式录制,X264+AAC,MP4封装。

家里 ADSL 24 小时开机。请戏曲同好下载后尽量不要移出 eMule 共享目录,帮助分享中国传统艺术,万分感谢!

正在读取……

这里是其它用户补充的资源(我也要补充):

暂无补充资源
正在加载,请稍等...

点击查看所有57网友评论

 

(?) [公告]留口水、评论相关规则 | [活动]每日签到 轻松领取电驴经验

    小贴士:
  1. 类似“顶”、“沙发”之类没有营养的文字,对勤劳贡献的楼主来说是令人沮丧的反馈信息。
  2. 提问之前请再仔细看一遍楼主的说明,或许是您遗漏了。
  3. 勿催片。请相信驴友们对分享是富有激情的,如果确有更新版本,您一定能搜索到。
  4. 请勿到处挖坑绊人、招贴广告。既占空间让人厌烦,又没人会搭理,于人于己都无利。
  5. 如果您发现自己的评论不见了,请参考以上4条。