v

您的位置:VeryCD音乐古典音乐

音乐资源事务区


V.A. -《极致:莫扎特选集》(Ultimate Mozart)DECCA极致系列 (5CD Box-set)[FLAC]

  • 状态: 精华资源
  • 摘要:
    发行时间2006年
  • 时间: 2008/07/04 12:38:39 发布 | 2008/07/09 18:27:20 更新
  • 分类: 音乐  古典音乐 

Leonson

精华资源: 78

全部资源: 78

相关: 分享到新浪微博   转播到腾讯微博   分享到开心网   分享到人人   分享到QQ空间   订阅本资源RSS更新   美味书签  subtitle
该内容尚未提供权利证明,无法提供下载。
专辑英文名Ultimate Mozart
专辑中文名极致:莫扎特选集
艺术家V.A.
资源格式FLAC
版本DECCA极致系列 (5CD Box-set)
发行时间2006年
地区英国
简介

IPB Image

盒装名称:Ultimate Mozart, the Essential Masterpieces (5CD)
唱片公司:Decca
发行编号:475 8052 DB5
录音制式:ADD / DDD
专辑类型:古典
CD编号:475 8053-57
资源出处:Leonson私人CD原版原抓

专辑介绍

关于DECCA的《Ultimate》系列

DECCA 《Ultimate》系列包括多套5CD一组的主题选集,着重地介绍了各个时代的大师们最有影响力、最广为流传的古典音乐作品,其中包括贝多芬、巴赫、肖邦、柴可夫斯基、莫扎特、舒伯特等的必听之作。此外,该系列还以不同体裁作为类别划分,加入了古典小提琴、大提琴、钢琴、钢琴协奏曲、休闲古典、巴洛克、歌剧等主题选集。虽然这个系列中某些选曲的录音年份有些久远,但演绎者中不乏宗师级的人物,故欣赏价值也是颇高的。全系列由环球公司下属的德国EDC压片生产,品质优良,而封面设计则简约而不失典雅。该系列比较适合初涉古典音乐的朋友欣赏、收藏,通过这套入门级的CD能对古典音乐有一个基本的、初步的认知和了解。而已是古典音乐爱好者的乐友,或许也能从中找到一些自己可能还没有听过的演绎版本。

如需要检索该系列各选集的下载地址,请参看【DECCA《极致》系列的下载地址列表】,地址如下:
http://www.VeryCD.com/groups/@g2121418/705001.topic


作曲家及部分演奏者、指挥简介


IPB Image

Wolfgang Amadeus Mozart(沃尔夫冈·阿玛迪乌斯·莫扎特)

1756~1791,奥地利作曲家莫扎特是古典乐派最典型作曲家,与海顿、贝多芬并称为维也纳古典乐派三大作曲家。

1756年1月27日,沃尔夫冈-阿马德乌斯-莫扎特出生于奥地利的萨尔斯堡一个宫廷乐师之家。他很小就显露出极高的音乐天赋,在父亲的教导下学习音乐。从1762年起,在父亲的带领下,6岁的莫扎特和10岁的姐姐安娜开始了漫游整个欧洲大陆的旅行演出。他们到过慕尼黑、法兰克福、波恩、维也纳、巴黎、伦敦、米兰、波隆那、佛罗伦萨、那不勒斯、罗马、阿姆斯特丹等等许多地方,所到之处无不引起巨大的轰动。在奥地利国都维也纳,他们被皇帝请进王宫进行表演。

1772年,16岁的莫扎特终于结束了长达10年之久的漫游生活,回到自己的家乡萨尔斯堡,在大主教的宫廷乐队里担任首席乐师。由于不满主教对他的严厉管束,这段不稳定的雇佣关系终于在1781年结束,他毅然决定独立自主,前往维也纳定居,走上艰难的自由音乐家道路。

莫扎特写作之轻松与神速使他的同时代人和后辈都把他看作是无师自通、不学而成的天才,纵观他的一生,除了孩提时期受到父亲的严格教诲外,的确从未得到过正式的教师指导。天才是不容否认的,但人们往往因此而忽略了天才也离不开刻苦与勤奋。莫扎特曾说:“人们以为我的艺术得来全不费功夫。实际上,没有人会像我一样花这么多时间和思考来从事作曲;没有一位名家的作品我不是辛勤地研究了许多次。”

1791年莫扎特贫病交加在维也纳逝世,享年仅35岁。

莫扎特的主要代表作有:歌剧22部;以《费加罗的婚礼》、《唐璜》、《魔笛》最为著名;交响曲41部,以第三十九、四十、四十一交响曲最为著名;钢琴协奏曲27部,以第二十、二十一、二十三、二十四、二十六、二十七钢琴协奏曲最为著名;小提琴协奏曲6部,以第四、第五小提琴协奏曲最为著名;此外,他还写了大量各种体裁的器乐与声乐作品。

有关莫扎特更详尽的介绍,请参考http://baike.baidu.com/view/4431.htm
-------------------------------------------------------------------------------------------------

Vladimir Ashkenzazy(弗拉基米尔·阿什肯纳齐):钢琴家、指挥家,1937年7月6日出生於俄罗斯高尔基,六岁开始学习钢琴,在莫斯科音乐院附属中央音乐学校师事Anaida Sumbatyan,1955年到1963年在莫斯科音乐院师从奥博林(Lev Oborin),1955年在华沙萧邦大赛中获得第二名,1956年得到伊莉莎白皇后钢琴大赛金牌,毕业后首度赴美国巡迴演出,1962年与奥格东并列柴科夫斯基大赛第一名,一年后以贝多芬第一号钢琴协奏曲、布拉姆斯第二号钢琴协奏曲成功进军伦敦,1969年首度以指挥家的身份与冰岛交响乐团合作。阿什肯纳齐在1963年到68年间定居伦敦,后来移居冰岛,1972年成为冰岛公民,目前居住在瑞士。经过二十六年离乡背井的日子,阿什肯纳齐在1989年与英国皇家爱乐赴苏联举行音乐会。阿什肯纳齐的演出曲目广从莫扎特到萧斯塔科维奇,但是以萧邦为重心。他的录音数量相当庞大。近年他的音乐活动以指挥为重心,1987 年到1994年担任英国皇家爱乐音乐总监,1989年到2000年担任柏林德意志交响乐团首席指挥与音乐总监,1998年起成为捷克爱乐首席指挥。

Neville Marriner(内维尔·马里纳):英国著名指挥家、小提琴家,1924年4月15日出生於英国林肯。马里纳早年在英国皇家音乐院学习小提琴,1949年至1959年在皇家音乐家教授小提琴。马里纳在1952年至1956年担任爱乐管弦乐团第二小提琴首席,1956年至1958年加入伦敦交响乐团第一小提琴,1958 年与朋友一同创办圣马丁学院管弦乐团,并担任该团音乐总监到1978年。圣马丁学院管弦乐团之外,马里纳分别担任过洛杉磯室内管弦乐团(1969年至1978年)与明尼苏达管弦乐团(1979年至1986年)首席指挥。英国皇室在1979年授予马里纳骑士称号,1985年授予爵士爵位。

Margaret Price(玛格丽特·普莱斯):威尔士女高音。她生长在一个音乐家庭,从小就是一个小小的“家庭歌手”——为自己的父母兄妹演唱。1962年,在父亲的帮助下她在威尔士国家歌剧院首演《费加罗的婚礼》中的凯鲁比诺。第二年停止了演唱女中音。1971年她在科隆歌剧院演唱了莫扎特的歌剧《唐璜》,扮演了多纳安娜,轰动了当时的德国,被当时的报纸称做最伟大的歌唱家之一。1999年,退休回到威尔士。

Georg Solti(乔治·索尔帝):匈牙利著名指挥家,1912年10月21日生于匈牙利布达佩斯。1935年他在萨尔茨堡音乐节曾协助瓦尔特的指挥演出工作,1937年也曾协助托斯卡尼尼指挥演出莫扎特《魔笛》和威尔第《安魂曲》的工作,并得到托斯卡尼尼的称赞。1938年3月11日在布达佩斯国家歌剧院首次指挥演出莫扎特《费加罗的婚礼》,这是他初露才华之作,也是他音乐一生的转折点,经过了8年的指挥学徒生活,从此开始了他光辉的指挥生涯。1958年在维也纳,索尔蒂展开了他事业上最光辉的一页,指挥维也纳爱乐乐团灌录了瓦格纳巨作《尼伯龙根的指环》。1969年,57岁的索尔蒂想当交响乐指挥的愿望终于如愿以偿了,就任芝加哥交响乐团(CSO)音乐总监兼指挥,这是他一生事业中鼎盛时期。他还兼任巴黎管弦乐团指挥(1972-1975) 、伦敦爱乐乐团指挥(1979-1984)。DECCA资料显示,索尔蒂是有史以来获得最多格林美奖的指挥家,自1962年以来共得32个奖项,加上其他唱片公司的7个奖项总共有39个奖项,这在现代指挥家中是极其罕有的。


特别说明:
由于带宽限制,请大家在下载时给予充足的耐性;
本人所发布的任何资源仅供试听之用。有需要的朋友请购买正版CD;
如有乐友转发此帖至其它网站或论坛,请自觉注明原出处为www.VeryCD.com,并给出ED2K链接。

引用
LOG文件

----------------------------------------------- CD1

Exact Audio Copy V0.99 prebeta 4 from 23. January 2008

EAC 抓取日志文件从2. 七月 2008, 17:13

Georg Solti - COE / Ultimate Mozart CD1

使用驱动器 :PIONEER DVD-RW DVR-112 Adapter: 3 ID: 0

读取模式 : 保护
使用精确流 : 是
废除音频缓冲 : 是
使用 C2 指针 : 否

读取偏移校正 : 48
读取 Lead-In 和 Lead-Out : 是
用静音填充抓取中丢失偏移的采样 : 是
去除首尾静音块 : 否
在 CRC 计算中使用了空样本 : 是
已用接口 : Win NT 及 2000 本地 Win32 接口

所用输出格式 : 用户定义的编码器
已选比特率 : 1024 kBit/s
质量 : 高
添加 ID3 标签 : 是
命令行压缩器 : C:\Program Files\Exact Audio Copy\Flac\flac.exe


被抓轨 CD 的 TOC

音轨 | 开始 | 长度 | 起始扇区 | 结尾扇区
--------------------------------------------------
1 | 0:00.33 | 8:21.55 | 33 | 37662
2 | 8:22.13 | 7:56.57 | 37663 | 73419
3 | 16:18.70 | 4:47.63 | 73420 | 95007
4 | 21:06.58 | 5:05.67 | 95008 | 117949
5 | 26:12.50 | 8:26.03 | 117950 | 155902
6 | 34:38.53 | 8:33.05 | 155903 | 194382
7 | 43:11.58 | 5:22.45 | 194383 | 218577
8 | 48:34.28 | 6:26.58 | 218578 | 247585


范围状态及错误

已选择范围

文件名 F:\Emule\New Release\Ultimate Mozart\Georg.Solti.-.COE.-.[Ultimate.Mozart.CD1].专辑.wav

峰值电平 89.9 %
范围质量 100.0 %
复制 CRC F1E73C31
复制成功

没有错误发生


AccurateRip 概要

音轨 1 已正确抓取 (确认 2) [C589BAD6]
音轨 2 已正确抓取 (确认 2) [055AC0C2]
音轨 3 已正确抓取 (确认 2) [AF4828CE]
音轨 4 已正确抓取 (确认 2) [6942FEB0]
音轨 5 已正确抓取 (确认 2) [0B4CD149]
音轨 6 已正确抓取 (确认 2) [6670ED42]
音轨 7 已正确抓取 (确认 2) [D6032BFB]
音轨 8 已正确抓取 (确认 2) [2A5FA022]

所有音轨已被精确抓取

状态报告结尾

-------------------------------------------------------------------------------- CD2

Exact Audio Copy V0.99 prebeta 4 from 23. January 2008

EAC 抓取日志文件从2. 七月 2008, 22:31

Vladimir Ashkenazy / Ultimate Mozart CD2

使用驱动器 :PIONEER DVD-RW DVR-112 Adapter: 3 ID: 0

读取模式 : 保护
使用精确流 : 是
废除音频缓冲 : 是
使用 C2 指针 : 否

读取偏移校正 : 48
读取 Lead-In 和 Lead-Out : 否
用静音填充抓取中丢失偏移的采样 : 是
去除首尾静音块 : 否
在 CRC 计算中使用了空样本 : 是
已用接口 : Win NT 及 2000 本地 Win32 接口

所用输出格式 : 用户定义的编码器
已选比特率 : 1024 kBit/s
质量 : 高
添加 ID3 标签 : 否
命令行压缩器 : C:\Program Files\Exact Audio Copy\FLAC\FLAC.EXE
附加命令行参数 : -6 -V -T "ARTIST=%a" -T "TITLE=%t" -T "ALBUM=%g" -T "DATE=%y" -T "TRACKNUMBER=%n" -T "GENRE=%m" -T "COMMENT=%e" %s -o %d


被抓轨 CD 的 TOC

音轨 | 开始 | 长度 | 起始扇区 | 结尾扇区
--------------------------------------------------
1 | 0:00.33 | 14:49.42 | 33 | 66749
2 | 14:50.00 | 7:54.15 | 66750 | 102314
3 | 22:44.15 | 6:44.03 | 102315 | 132617
4 | 29:28.18 | 10:12.72 | 132618 | 178589
5 | 39:41.15 | 15:15.15 | 178590 | 247229
6 | 54:56.30 | 10:40.63 | 247230 | 295292
7 | 65:37.18 | 8:29.62 | 295293 | 333529


范围状态及错误

已选择范围

文件名 F:\Emule\New Release\Ultimate Mozart\Vladimir Ashkenazy - Ultimate Mozart CD2.wav

峰值电平 100.0 %
范围质量 100.0 %
复制 CRC B44B4604
复制成功

没有错误发生


AccurateRip 概要

音轨 1 已正确抓取 (确认 2) [0AC0576A]
音轨 2 已正确抓取 (确认 2) [C2571BDE]
音轨 3 已正确抓取 (确认 2) [F648497C]
音轨 4 已正确抓取 (确认 2) [F69B5DE3]
音轨 5 已正确抓取 (确认 2) [8AC00C33]
音轨 6 已正确抓取 (确认 2) [EF0B25EB]
音轨 7 已正确抓取 (确认 2) [B4F2A4CE]

所有音轨已被精确抓取

状态报告结尾

-------------------------------------------------------------------------------- CD3

Exact Audio Copy V0.99 prebeta 4 from 23. January 2008

EAC 抓取日志文件从3. 七月 2008, 10:22

Various / Ultimate Mozart CD3

使用驱动器 :PIONEER DVD-RW DVR-112 Adapter: 3 ID: 0

读取模式 : 保护
使用精确流 : 是
废除音频缓冲 : 是
使用 C2 指针 : 否

读取偏移校正 : 48
读取 Lead-In 和 Lead-Out : 否
用静音填充抓取中丢失偏移的采样 : 是
去除首尾静音块 : 否
在 CRC 计算中使用了空样本 : 是
已用接口 : Win NT 及 2000 本地 Win32 接口

所用输出格式 : 用户定义的编码器
已选比特率 : 1024 kBit/s
质量 : 高
添加 ID3 标签 : 否
命令行压缩器 : C:\Program Files\Exact Audio Copy\FLAC\FLAC.EXE
附加命令行参数 : -6 -V -T "ARTIST=%a" -T "TITLE=%t" -T "ALBUM=%g" -T "DATE=%y" -T "TRACKNUMBER=%n" -T "GENRE=%m" -T "COMMENT=%e" %s -o %d


被抓轨 CD 的 TOC

音轨 | 开始 | 长度 | 起始扇区 | 结尾扇区
--------------------------------------------------
1 | 0:00.32 | 12:05.00 | 32 | 54406
2 | 12:05.32 | 7:42.00 | 54407 | 89056
3 | 19:47.32 | 8:48.00 | 89057 | 128656
4 | 28:35.32 | 10:29.00 | 128657 | 175831
5 | 39:04.32 | 8:31.00 | 175832 | 214156
6 | 47:35.32 | 8:30.00 | 214157 | 252406
7 | 56:05.32 | 8:06.00 | 252407 | 288856
8 | 64:11.32 | 4:14.00 | 288857 | 307906
9 | 68:25.32 | 3:42.00 | 307907 | 324556
10 | 72:07.32 | 5:31.00 | 324557 | 349381


范围状态及错误

已选择范围

文件名 F:\Emule\New Release\Ultimate Mozart\Various - Ultimate Mozart CD3.wav

峰值电平 97.7 %
范围质量 100.0 %
复制 CRC 556E8178
复制成功

没有错误发生


AccurateRip 概要

音轨 1 已正确抓取 (确认 2) [93363E8F]
音轨 2 已正确抓取 (确认 2) [A1DDB148]
音轨 3 已正确抓取 (确认 2) [E76CFB98]
音轨 4 已正确抓取 (确认 2) [6C9D96BA]
音轨 5 已正确抓取 (确认 2) [B40F3EF7]
音轨 6 已正确抓取 (确认 2) [0AE39BAD]
音轨 7 已正确抓取 (确认 2) [19EF301D]
音轨 8 已正确抓取 (确认 2) [3589823E]
音轨 9 已正确抓取 (确认 2) [92EE427F]
音轨 10 已正确抓取 (确认 2) [A7D471E2]

所有音轨已被精确抓取

状态报告结尾

------------------------------------------------------------------------------- CD4

Exact Audio Copy V0.99 prebeta 4 from 23. January 2008

EAC 抓取日志文件从2. 七月 2008, 21:54

Neville Marriner / Ultimate Mozart CD4

使用驱动器 :PIONEER DVD-RW DVR-112 Adapter: 3 ID: 0

读取模式 : 保护
使用精确流 : 是
废除音频缓冲 : 是
使用 C2 指针 : 否

读取偏移校正 : 48
读取 Lead-In 和 Lead-Out : 否
用静音填充抓取中丢失偏移的采样 : 是
去除首尾静音块 : 否
在 CRC 计算中使用了空样本 : 是
已用接口 : Win NT 及 2000 本地 Win32 接口

所用输出格式 : 用户定义的编码器
已选比特率 : 1024 kBit/s
质量 : 高
添加 ID3 标签 : 否
命令行压缩器 : C:\Program Files\Exact Audio Copy\FLAC\FLAC.EXE
附加命令行参数 : -6 -V -T "ARTIST=%a" -T "TITLE=%t" -T "ALBUM=%g" -T "DATE=%y" -T "TRACKNUMBER=%n" -T "GENRE=%m" -T "COMMENT=%e" %s -o %d


被抓轨 CD 的 TOC

音轨 | 开始 | 长度 | 起始扇区 | 结尾扇区
--------------------------------------------------
1 | 0:00.33 | 5:52.45 | 33 | 26477
2 | 5:53.03 | 5:42.37 | 26478 | 52164
3 | 11:35.40 | 2:04.55 | 52165 | 61519
4 | 13:40.20 | 4:16.08 | 61520 | 80727
5 | 17:56.28 | 4:18.32 | 80728 | 100109
6 | 22:14.60 | 3:47.25 | 100110 | 117159
7 | 26:02.10 | 4:37.00 | 117160 | 137934
8 | 30:39.10 | 4:10.65 | 137935 | 156749
9 | 34:50.00 | 6:13.53 | 156750 | 184777
10 | 41:03.53 | 2:50.10 | 184778 | 197537
11 | 43:53.63 | 4:54.50 | 197538 | 219637
12 | 48:48.38 | 2:42.47 | 219638 | 231834
13 | 51:31.10 | 3:15.13 | 231835 | 246472
14 | 54:46.23 | 3:48.32 | 246473 | 263604
15 | 58:34.55 | 3:59.40 | 263605 | 281569
16 | 62:34.20 | 1:56.60 | 281570 | 290329


范围状态及错误

已选择范围

文件名 F:\Emule\New Release\Ultimate Mozart\Neville Marriner - Ultimate Mozart CD4.wav

峰值电平 75.1 %
范围质量 100.0 %
复制 CRC ABC283E8
复制成功

没有错误发生


AccurateRip 概要

音轨 1 已正确抓取 (确认 2) [EB021B55]
音轨 2 已正确抓取 (确认 2) [5AF7E2DD]
音轨 3 已正确抓取 (确认 2) [AAC12295]
音轨 4 已正确抓取 (确认 2) [DC514D22]
音轨 5 已正确抓取 (确认 2) [867A5A3C]
音轨 6 已正确抓取 (确认 2) [F3F22950]
音轨 7 已正确抓取 (确认 2) [0974C9BB]
音轨 8 已正确抓取 (确认 2) [FE9A68AD]
音轨 9 已正确抓取 (确认 2) [D13B2154]
音轨 10 已正确抓取 (确认 2) [7BE69674]
音轨 11 已正确抓取 (确认 2) [6EA29D06]
音轨 12 已正确抓取 (确认 2) [7114F24C]
音轨 13 已正确抓取 (确认 2) [63F6B26A]
音轨 14 已正确抓取 (确认 2) [19C09ACC]
音轨 15 已正确抓取 (确认 2) [A5CF3A14]
音轨 16 已正确抓取 (确认 2) [5B05CAFD]

所有音轨已被精确抓取

状态报告结尾

----------------------------------------------------------------------- CD5

Exact Audio Copy V0.99 prebeta 4 from 23. January 2008

EAC 抓取日志文件从3. 七月 2008, 13:22

Various / Ultimate Mozart CD5

使用驱动器 :PIONEER DVD-RW DVR-112 Adapter: 3 ID: 0

读取模式 : 保护
使用精确流 : 是
废除音频缓冲 : 是
使用 C2 指针 : 否

读取偏移校正 : 48
读取 Lead-In 和 Lead-Out : 否
用静音填充抓取中丢失偏移的采样 : 是
去除首尾静音块 : 否
在 CRC 计算中使用了空样本 : 是
已用接口 : Win NT 及 2000 本地 Win32 接口

所用输出格式 : 用户定义的编码器
已选比特率 : 1024 kBit/s
质量 : 高
添加 ID3 标签 : 否
命令行压缩器 : C:\Program Files\Exact Audio Copy\FLAC\FLAC.EXE
附加命令行参数 : -6 -V -T "ARTIST=%a" -T "TITLE=%t" -T "ALBUM=%g" -T "DATE=%y" -T "TRACKNUMBER=%n" -T "GENRE=%m" -T "COMMENT=%e" %s -o %d


被抓轨 CD 的 TOC

音轨 | 开始 | 长度 | 起始扇区 | 结尾扇区
--------------------------------------------------
1 | 0:00.00 | 5:15.13 | 0 | 23637
2 | 5:15.13 | 2:38.64 | 23638 | 35551
3 | 7:54.02 | 1:52.70 | 35552 | 44021
4 | 9:46.72 | 3:23.65 | 44022 | 59311
5 | 13:10.62 | 2:03.26 | 59312 | 68562
6 | 15:14.13 | 5:30.57 | 68563 | 93369
7 | 20:44.70 | 2:46.11 | 93370 | 105830
8 | 23:31.06 | 3:05.33 | 105831 | 119738
9 | 26:36.39 | 3:54.32 | 119739 | 137320
10 | 30:30.71 | 4:37.39 | 137321 | 158134
11 | 35:08.35 | 1:42.23 | 158135 | 165807
12 | 36:50.58 | 5:19.21 | 165808 | 189753
13 | 42:10.04 | 3:06.72 | 189754 | 203775
14 | 45:17.01 | 5:51.71 | 203776 | 230171
15 | 51:08.72 | 2:47.24 | 230172 | 242720
16 | 53:56.21 | 4:41.56 | 242721 | 263851
17 | 58:38.02 | 6:16.30 | 263852 | 292081
18 | 64:54.32 | 1:44.40 | 292082 | 299921
19 | 66:38.72 | 3:01.19 | 299922 | 313515
20 | 69:40.16 | 5:59.02 | 313516 | 340442
21 | 75:39.18 | 3:02.66 | 340443 | 354158


范围状态及错误

已选择范围

文件名 F:\Emule\New Release\Ultimate Mozart\Various - Ultimate Mozart CD5.wav

峰值电平 97.1 %
范围质量 100.0 %
复制 CRC FFEC893D
复制成功

没有错误发生


AccurateRip 概要

音轨 1 已正确抓取 (确认 3) [B36695BB]
音轨 2 已正确抓取 (确认 3) [12AC3D65]
音轨 3 已正确抓取 (确认 3) [12517F85]
音轨 4 已正确抓取 (确认 3) [FB68A454]
音轨 5 已正确抓取 (确认 3) [2052432A]
音轨 6 已正确抓取 (确认 3) [930D24AF]
音轨 7 已正确抓取 (确认 3) [23498EF1]
音轨 8 已正确抓取 (确认 3) [26F1E074]
音轨 9 已正确抓取 (确认 3) [B15D991E]
音轨 10 已正确抓取 (确认 3) [2468742F]
音轨 11 已正确抓取 (确认 3) [0BE5C5A4]
音轨 12 已正确抓取 (确认 3) [023E8459]
音轨 13 已正确抓取 (确认 3) [7DBF5E01]
音轨 14 已正确抓取 (确认 3) [1A11D9F5]
音轨 15 已正确抓取 (确认 3) [DAE3D7B2]
音轨 16 已正确抓取 (确认 3) [CC88A67A]
音轨 17 已正确抓取 (确认 3) [BA8C6703]
音轨 18 已正确抓取 (确认 3) [62DC5CF4]
音轨 19 已正确抓取 (确认 3) [11AEDC63]
音轨 20 已正确抓取 (确认 3) [C5FAB1BB]
音轨 21 已正确抓取 (确认 3) [F27D0067]

所有音轨已被精确抓取

状态报告结尾



专辑曲目

CD1. Ultimate Mozart 1: Symphony No. 40 | "Jupiter" Symphony (No. 41)
极致 - 莫扎特选集CD1:第四十号、第四十一号“朱庇特”交响曲
Wolfgang Amadeus Mozart (1756 - 1791)

Symphony No.40 in G minor, K.550
G小调第四十号交响曲,作品K.550
01. 1. Molto allegro
02. 2. Andante
03. 3. Menuetto (Allegretto) - Trio
04. 4. Finale (Allegro assai)

Symphony No.41 in C, K.551 - "Jupiter"
C大调第四十一号交响曲“朱庇特”,作品K.551
05. 1. Allegro vivace
06. 2. Andante cantabile
07. 3. Menuetto (Allegretto)
08. 4. Molto allegro

- Chamber Orchestra of Europe / Sir Georg Solti (conductor) / DDD 1984
- 欧洲室内乐团 - 指挥:索尔蒂

CD2. Ultimate Mozart 2: Piano Concerto No. 21 | Piano Concerto No. 20
极致 - 莫扎特选集CD2:第二十一号、第二十号钢琴协奏曲
Wolfgang Amadeus Mozart (1756 - 1791)

Piano Concerto No.21 in C, K.467
C大调第二十一钢琴协奏曲,作品K.467
01. 1. Allegro maestoso
02. 2. Andante
03. 3. Allegro vivace assai

04. Rondo in A minor, K.511
A小调回旋曲,作品K.511

Piano Concerto No.20 in D minor, K.466
D小调第二十钢琴协奏曲,作品K.466
05. 1. Allegro
06. 2. Romance
07. 3. Rondo (Allegro assai)

- Vladimir Ashkenazy (piano & conductor) / Philharmonia Orchestra / ADD 1967 (K.511), 1977 (K.467), DDD 1983 (K.466)
- 钢琴演奏兼指挥:阿什肯纳济 - 爱乐乐团

CD3. Ultimate Mozart 3: Clarinet Concerto | Flute and Harp Concerto | Horn Concerto No. 4 | Rondo in E flat
极致 - 莫扎特选集CD3:单簧管协奏曲、长笛与竖琴协奏曲、第四圆号协奏曲、降E大调回旋曲
Wolfgang Amadeus Mozart (1756 - 1791)

Clarinet Concerto in A, K.622
A大调单簧管协奏曲,作品K.622
01. 1. Allegro
02. 2. Adagio
03. 3. Rondo (Allegro)

Concerto for Flute, Harp and Orchestra in C, K.299
C大调长笛与竖琴协奏曲,作品K.299
04. 1. Allegro
05. 2. Andantino
06. 3. Rondo (Allegro)

Horn Concerto No.4 in E flat, K.495
(Cadenza: Peter Damm)
降E大调第四圆号协奏曲,作品K.495
(华彩乐段:彼得·丹姆)
07. 1. Allegro moderato
08. 2. Romanza (Andante)
09. 3. Rondo (Allegro vivace)

10. Rondo for Horn and Orchestra in E flat, K.371 *
降E大调圆号回旋曲,作品K.371

- Karl Leister, clarinet (K.622) 单簧管演奏:卡尔·莱斯特
- Irena Grafenauer, flute / Maria Graf, harp (K.299) 长笛演奏:伊丽娜·格拉芬诺尔 / 竖琴演奏:玛利亚·格拉芙
- Peter Damm, horn (K.495) 圆号演奏:彼得·丹姆
- Timothy Brown, horn (K.371) 圆号演奏:蒂莫西·布朗
- Academy of St Martin in the Fields / Sir Neville Marriner, Kenneth Sillito * (conductors) / DDD 1988 (K.622, K.299, K.495), 1990 (K.371)
- 圣马丁室内乐团 - 指挥:马里纳、肯尼思·西利托 *

CD4. Ultimate Mozart 4: Eine kleine Nachtmusik | Serenata notturna | 3 Divertimenti
极致 - 莫扎特选集CD4:夜曲、夜曲风格小夜曲、三首嬉游曲
Wolfgang Amadeus Mozart (1756 - 1791)

Serenade in G, K.525 "Eine kleine Nachtmusik"
G大调小夜曲,作品K.525
01. 1. Allegro
02. 2. Romance (Andante)
03. 3. Menuetto (Allegretto)
04. 4. Rondo (Allegro)

Serenata notturna in D, K.239
D大调夜曲风格小夜曲,作品K.239
05. 1. Marcia (Maestoso)
06. 2. Menuetto - Trio
07. 3. Rondeau (Allegretto - Adagio - Allegro)

Divertimento in D, K.136
D大调嬉游曲,作品K.136
08. 1. Allegro
09. 2. Andante
10. 3. Presto

Divertimento in B flat, K.137
降B大调嬉游曲,作品K.137
11. 1. Andante
12. 2. Allegro di molto
13. 3. Allegro assai

Divertimento in F, K.138
F大调嬉游曲,作品K.138
14. 1. (Allegro)
15. 2. Andante
16. 3. Presto

- Academy of St Martin in the Fields / Sir Neville Marriner (conductor) / ADD 1967 (K.239, K.136, K.137, K.138), 1970 (K.525)
- 圣马丁室内乐团 - 指挥:马里纳

CD5. Ultimate Mozart 5: Requiem | "Coronation" Mass | Ave verum corpus
极致 - 莫扎特选集CD5:安魂曲、加冕弥撒、圣体颂

Wolfgang Amadeus Mozart (1756 - 1791)

Requiem in D minor, K.626
(compl. by Franz Xaver Süssmayer)
D小调安魂曲,作品K.626
01. 1. Introitus: Requiem
02. 2. Kyrie
03. 3. Sequentia: Dies irae
04. 3. Sequentia: Tuba mirum
05. 3. Sequentia: Rex tremendae
06. 3. Sequentia: Recordare
07. 3. Sequentia: Confutatis
08. 3. Sequentia: Lacrimosa
09. 4. Offertorium: Domine Jesu
10. 4. Offertorium: Hostias
11. 5. Sanctus
12. 6. Benedictus
13. 7. Agnus Dei
14. 8.Communio: Lux aeterna

Mass in C, K.317 "Coronation"
C大调加冕弥撒,作品K.317
15. 1. Kyrie
16. 2. Gloria
17. 3. Credo
18. 4. Sanctus
19. 5. Benedictus
20. 6. Agnus Dei

21. Ave verum corpus, K.618
圣体颂,作品K.618

- K.626: Margaret Price (soprano) / Trudeliese Schmidt (mezzo-soprano) / Francisco Araiza (tenor) / Theo Adam (bass)
- K.317: Edith Mathis (soprano) / Jadwiga Rappe (contralto) / Hans Peter Blochwitz (tenor) / Thomas Quasthof (bass)
- Rundfunkchor Leipzig / Staatskapelle Dresden / Peter Schreier / DDD 1982 (K.626), 1989 (K.317), 1992 (K.618)

- K.626:女高音 玛格丽特·普莱斯、女中音 特鲁德丽丝·施密特、男高音 弗朗西斯科·阿莱沙、男低音 希尔·亚当
- K.317:女高音 艾迪丝·玛蒂斯、次女低音 雅德薇格·拉佩、男高音 汉斯·彼得·布洛赫维兹、男低音 托马斯·夸斯托夫
- 莱比锡广播合唱团 - 德累斯顿国家管弦乐团 - 指挥:彼得·施莱尔

正在读取……

这里是其它用户补充的资源(我也要补充):

暂无补充资源
正在加载,请稍等...

点击查看所有206网友评论

 

(?) [公告]留口水、评论相关规则 | [活动]每日签到 轻松领取电驴经验

    小贴士:
  1. 类似“顶”、“沙发”之类没有营养的文字,对勤劳贡献的楼主来说是令人沮丧的反馈信息。
  2. 提问之前请再仔细看一遍楼主的说明,或许是您遗漏了。
  3. 勿催片。请相信驴友们对分享是富有激情的,如果确有更新版本,您一定能搜索到。
  4. 请勿到处挖坑绊人、招贴广告。既占空间让人厌烦,又没人会搭理,于人于己都无利。
  5. 如果您发现自己的评论不见了,请参考以上4条。