v

您的位置:VeryCD音乐日韩音乐

音乐资源事务区


Various Artists -《AQUAPLUS VOCAL COLLECTION VOL.8》专辑[FLAC]

  • 状态: 精华资源
  • 摘要:
    音乐风格流行
    发行时间2012年05月23日
    地区日本
    语言日语
  • 时间: 2015/01/22 18:36:55 发布 | 2015/01/23 12:48:48 更新
  • 分类: 音乐  日韩音乐 

gecorsillem

精华资源: 35

全部资源: 35

相关: 分享到新浪微博   转播到腾讯微博   分享到开心网   分享到人人   分享到QQ空间   订阅本资源RSS更新   美味书签  subtitle
该内容尚未提供权利证明,无法提供下载。
专辑中文名AQUAPLUS VOCAL COLLECTION VOL.8
音乐风格流行
资源格式FLAC
版本专辑
发行时间2012年05月23日
地区日本
语言日语
简介

IPB Image

专辑介绍

著名的美少女GALGAME公司Leaf社所发行的音乐精选集第八弹。收录传颂之物OVA,提亚拉之泪,白色相簿等相关歌曲,而且理所应当的是surar和上原rena力压群芳,说实在的,不由得有些审美疲劳,leaf的精选集到第八弹也算是告一段落,至于以后还会不会出第九弹、第十弹,随缘吧。

==========
某G每天的在线时间大约是早9点到晚12点,虽然是20M的光纤,但却只有2M的上行带宽,速度略慢,请大家见谅。
某G每周都会去扫货,每天都会更新2~3张碟,敬请期待。
额,还有,如果驴友们想要某G发布某些资源的话,可以在驴网或微博上私信我,仅限日音无损哟,某G会在扫货的时候多多关注一下,如果能买到的话一定搞到手哟。
微博地址:http://weibo.com/u/5484267418/

引用
Exact Audio Copy V1.0 beta 3 from 29. August 2011

EAC extraction logfile from 22. January 2015, 18:10

V.A / AQUAPLUS VOCAL COLLECTION VOL.8

Used drive : PLDS DVD+-RW DL-8A4SH Adapter: 0 ID: 0

Read mode : Burst

Combined read/write offset correction : 0
Overread into Lead-In and Lead-Out : No
Fill up missing offset samples with silence : Yes
Delete leading and trailing silent blocks : No
Null samples used in CRC calculations : Yes
Used interface : Native Win32 interface for Win NT & 2000

Used output format : User Defined Encoder
Selected bitrate : 1024 kBit/s
Quality : High
Add ID3 tag : Yes
Command line compressor : D:\Program Files\EAC_gr_veryhuo.com\FLAC\FLAC.EXE
Additional command line options : -6 -V -T "ARTIST=%artist%" -T "TITLE=%title%" -T "ALBUM=%albumtitle%" -T "DATE=%year%" -T "TRACKNUMBER=%tracknr%" -T "GENRE=%genre%" -T "COMMENT=%comment%" -T "BAND=%albuminterpret%" -T "ALBUMARTIST=%albuminterpret%" -T "COMPOSER=%composer%" %haslyrics%--tag-from-file=LYRICS="%lyricsfile%"%haslyrics% -T "DISCNUMBER=%cdnumber%" -T "TOTALDISCS=%totalcds%" -T "TOTALTRACKS=%numtracks%" %hascover%--picture="%coverfile%"%hascover% %source% -o %dest%


TOC of the extracted CD

Track | Start | Length | Start sector | End sector
---------------------------------------------------------
1 | 0:00.00 | 4:35.39 | 0 | 20663
2 | 4:35.39 | 4:38.25 | 20664 | 41538
3 | 9:13.64 | 4:31.45 | 41539 | 61908
4 | 13:45.34 | 5:00.32 | 61909 | 84440
5 | 18:45.66 | 3:53.12 | 84441 | 101927
6 | 22:39.03 | 6:00.13 | 101928 | 128940
7 | 28:39.16 | 4:23.07 | 128941 | 148672
8 | 33:02.23 | 5:52.64 | 148673 | 175136
9 | 38:55.12 | 4:35.62 | 175137 | 195823
10 | 43:30.74 | 5:01.50 | 195824 | 218448
11 | 48:32.49 | 6:06.28 | 218449 | 245926
12 | 54:39.02 | 4:39.20 | 245927 | 266871
13 | 59:18.22 | 4:57.72 | 266872 | 289218
14 | 64:16.19 | 5:04.10 | 289219 | 312028


Range status and errors

Selected range

Filename D:\incoming\Various Artists\AQUAPLUS VOCAL COLLECTION VOL.8\V.A.-.[AQUAPLUS.VOCAL.COLLECTION.VOL.8].专辑.(FLAC).wav

Timing problem 0:33:47
Timing problem 0:51:19
Timing problem 1:02:38
Timing problem 1:02:50

Peak level 99.4 %
Extraction speed 248.3 X
Copy CRC AD960B5A
Copy finished

No errors occurred

End of status report



专辑曲目

1 adamant faith Suara 须谷尚子 松冈纯也 OVA『うたわれるもの』OP
2 梦のつづき 上原れな 须谷尚子 衣笠道雄 OVA『うたわれるもの』ED
3 仆だけの旅路 小山刚志 小山刚志 衣笠道雄 OVA『うたわれるもの』挿入歌
4 WORDS OF LOVE 上原れな 上原れな 衣笠道雄 『爱佳でいくの!!』OP
5 Tears to Tiara~the essence~ 上原れな 豆田将 豆田将 『ティアーズ・トゥ・ティアラ外伝 -アヴァロンの谜-』OP
6 Please sing with me 上原れな 须谷尚子 石川真也 『ティアーズ・トゥ・ティアラ外伝 -アヴァロンの谜-』ED
7 花词 Suara SHINO Kushiko 『痕』OP
8 うつせみ Suara 须谷尚子 下川直哉 『痕』ED
9 赤い糸 Suara 须谷尚子 松冈纯也 TVアニメ『WHITE ALBUM』ED
10 雪の魔法 Suara 须谷尚子 松冈纯也 『WHITE ALBUM -缀られる冬の想い出-』OP
11 君のかわり Suara 豆田将 豆田将 『WHITE ALBUM -缀られる冬の想い出-』挿入歌
12 WHITE ALBUM 森川由綺(CV:平野綾) 森川由綺 石川真也 『WHITE ALBUM -缀られる冬の想い出-』挿入歌
13 SOUND OF DESTINY 绪方理奈(CV:水树奈々) 须谷尚子 中上和英 『WHITE ALBUM -缀られる冬の想い出-』挿入歌
14 POWDER SNOW Suara 须谷尚子 下川直哉 『WHITE ALBUM -缀られる冬の想い出-』ED

正在读取……

这里是其它用户补充的资源(我也要补充):

暂无补充资源
正在加载,请稍等...

点击查看所有48网友评论

 

(?) [公告]留口水、评论相关规则 | [活动]每日签到 轻松领取电驴经验

    小贴士:
  1. 类似“顶”、“沙发”之类没有营养的文字,对勤劳贡献的楼主来说是令人沮丧的反馈信息。
  2. 提问之前请再仔细看一遍楼主的说明,或许是您遗漏了。
  3. 勿催片。请相信驴友们对分享是富有激情的,如果确有更新版本,您一定能搜索到。
  4. 请勿到处挖坑绊人、招贴广告。既占空间让人厌烦,又没人会搭理,于人于己都无利。
  5. 如果您发现自己的评论不见了,请参考以上4条。