v

您的位置:VeryCD音乐日韩音乐

音乐资源事务区


Various Artists -《AQUAPLUS VOCAL COLLECTION VOL.7》专辑[FLAC]

  • 状态: 精华资源
  • 摘要:
    音乐风格流行
    发行时间2011年04月27日
    地区日本
    语言日语
  • 时间: 2015/01/22 18:30:41 发布 | 2015/01/23 12:48:43 更新
  • 分类: 音乐  日韩音乐 

gecorsillem

精华资源: 35

全部资源: 35

相关: 分享到新浪微博   转播到腾讯微博   分享到开心网   分享到人人   分享到QQ空间   订阅本资源RSS更新   美味书签  subtitle
该内容尚未提供权利证明,无法提供下载。
专辑中文名AQUAPLUS VOCAL COLLECTION VOL.7
音乐风格流行
资源格式FLAC
版本专辑
发行时间2011年04月27日
地区日本
语言日语
简介

IPB Image

专辑介绍

著名的美少女GALGAME公司Leaf社所发行的音乐精选集第七弹。收录花冠的大地等4部作品的歌曲。surar,上原rena,结城爱良等的歌声也十分动听哟。

==========
某G每天的在线时间大约是早9点到晚12点,虽然是20M的光纤,但却只有2M的上行带宽,速度略慢,请大家见谅。
某G每周都会去扫货,每天都会更新2~3张碟,敬请期待。
额,还有,如果驴友们想要某G发布某些资源的话,可以在驴网或微博上私信我,仅限日音无损哟,某G会在扫货的时候多多关注一下,如果能买到的话一定搞到手哟。
微博地址:http://weibo.com/u/5484267418/

引用
Exact Audio Copy V1.0 beta 3 from 29. August 2011

EAC extraction logfile from 22. January 2015, 18:08

V.A / AQUAPLUS VOCAL COLLECTION VOL.7

Used drive : PLDS DVD+-RW DL-8A4SH Adapter: 0 ID: 0

Read mode : Burst

Combined read/write offset correction : 0
Overread into Lead-In and Lead-Out : No
Fill up missing offset samples with silence : Yes
Delete leading and trailing silent blocks : No
Null samples used in CRC calculations : Yes
Used interface : Native Win32 interface for Win NT & 2000

Used output format : User Defined Encoder
Selected bitrate : 1024 kBit/s
Quality : High
Add ID3 tag : Yes
Command line compressor : D:\Program Files\EAC_gr_veryhuo.com\FLAC\FLAC.EXE
Additional command line options : -6 -V -T "ARTIST=%artist%" -T "TITLE=%title%" -T "ALBUM=%albumtitle%" -T "DATE=%year%" -T "TRACKNUMBER=%tracknr%" -T "GENRE=%genre%" -T "COMMENT=%comment%" -T "BAND=%albuminterpret%" -T "ALBUMARTIST=%albuminterpret%" -T "COMPOSER=%composer%" %haslyrics%--tag-from-file=LYRICS="%lyricsfile%"%haslyrics% -T "DISCNUMBER=%cdnumber%" -T "TOTALDISCS=%totalcds%" -T "TOTALTRACKS=%numtracks%" %hascover%--picture="%coverfile%"%hascover% %source% -o %dest%


TOC of the extracted CD

Track | Start | Length | Start sector | End sector
---------------------------------------------------------
1 | 0:00.00 | 3:59.58 | 0 | 17982
2 | 3:59.58 | 4:57.07 | 17983 | 40264
3 | 8:56.65 | 6:52.29 | 40265 | 71193
4 | 15:49.19 | 3:48.32 | 71194 | 88325
5 | 19:37.51 | 5:30.28 | 88326 | 113103
6 | 25:08.04 | 5:43.05 | 113104 | 138833
7 | 30:51.09 | 4:08.63 | 138834 | 157496
8 | 34:59.72 | 5:17.66 | 157497 | 181337
9 | 40:17.63 | 3:48.47 | 181338 | 198484
10 | 44:06.35 | 4:53.69 | 198485 | 220528
11 | 49:00.29 | 4:53.59 | 220529 | 242562
12 | 53:54.13 | 6:50.19 | 242563 | 273331


Range status and errors

Selected range

Filename D:\incoming\Various Artists\AQUAPLUS VOCAL COLLECTION VOL.7\V.A.-.[AQUAPLUS.VOCAL.COLLECTION.VOL.7].专辑.(FLAC).wav

Timing problem 0:45:54

Peak level 98.7 %
Extraction speed 276.8 X
Copy CRC 4FD164E4
Copy finished

No errors occurred

End of status report



专辑曲目

01. haunting melody
02. Until
03. memory
04. Free and Dream
05. Blue sky,True sky
06. Weeping alone
07. Hold a dream
08. Seed
09. 虹の架け桥
10. 君が残したもの
11. 舞い落ちる雪のように
12. memory (English Version)

正在读取……

这里是其它用户补充的资源(我也要补充):

暂无补充资源
正在加载,请稍等...

点击查看所有41网友评论

 

(?) [公告]留口水、评论相关规则 | [活动]每日签到 轻松领取电驴经验

    小贴士:
  1. 类似“顶”、“沙发”之类没有营养的文字,对勤劳贡献的楼主来说是令人沮丧的反馈信息。
  2. 提问之前请再仔细看一遍楼主的说明,或许是您遗漏了。
  3. 勿催片。请相信驴友们对分享是富有激情的,如果确有更新版本,您一定能搜索到。
  4. 请勿到处挖坑绊人、招贴广告。既占空间让人厌烦,又没人会搭理,于人于己都无利。
  5. 如果您发现自己的评论不见了,请参考以上4条。