v

您的位置:VeryCD音乐日韩音乐

音乐资源事务区


Various Artists -《AQUAPLUS VOCAL COLLECTION VOL.6》专辑[FLAC]

  • 状态: 精华资源
  • 摘要:
    音乐风格流行
    发行时间2009年12月23日
    地区日本
    语言日语
  • 时间: 2015/01/22 18:15:58 发布 | 2015/01/23 12:48:40 更新
  • 分类: 音乐  日韩音乐 

gecorsillem

精华资源: 35

全部资源: 35

相关: 分享到新浪微博   转播到腾讯微博   分享到开心网   分享到人人   分享到QQ空间   订阅本资源RSS更新   美味书签  subtitle
该内容尚未提供权利证明,无法提供下载。
专辑中文名AQUAPLUS VOCAL COLLECTION VOL.6
音乐风格流行
资源格式FLAC
版本专辑
发行时间2009年12月23日
地区日本
语言日语
简介

IPB Image

专辑介绍

著名的美少女GALGAME公司Leaf社所发行的音乐精选集第六弹,封面也较前五张精致也许多。本辑收录了传颂之物、toheart 2 anotherdays、OVA toheart2等相关歌曲。


==========
某G每天的在线时间大约是早9点到晚12点,虽然是20M的光纤,但却只有2M的上行带宽,速度略慢,请大家见谅。
某G每周都会去扫货,每天都会更新2~3张碟,敬请期待。
额,还有,如果驴友们想要某G发布某些资源的话,可以在驴网或微博上私信我,仅限日音无损哟,某G会在扫货的时候多多关注一下,如果能买到的话一定搞到手哟。
微博地址:http://weibo.com/u/5484267418/

引用
Exact Audio Copy V1.0 beta 3 from 29. August 2011

EAC extraction logfile from 22. January 2015, 18:06

V.A / AQUAPLUS VOCAL COLLECTION VOL.6

Used drive : PLDS DVD+-RW DL-8A4SH Adapter: 0 ID: 0

Read mode : Burst

Combined read/write offset correction : 0
Overread into Lead-In and Lead-Out : No
Fill up missing offset samples with silence : Yes
Delete leading and trailing silent blocks : No
Null samples used in CRC calculations : Yes
Used interface : Native Win32 interface for Win NT & 2000

Used output format : User Defined Encoder
Selected bitrate : 1024 kBit/s
Quality : High
Add ID3 tag : Yes
Command line compressor : D:\Program Files\EAC_gr_veryhuo.com\FLAC\FLAC.EXE
Additional command line options : -6 -V -T "ARTIST=%artist%" -T "TITLE=%title%" -T "ALBUM=%albumtitle%" -T "DATE=%year%" -T "TRACKNUMBER=%tracknr%" -T "GENRE=%genre%" -T "COMMENT=%comment%" -T "BAND=%albuminterpret%" -T "ALBUMARTIST=%albuminterpret%" -T "COMPOSER=%composer%" %haslyrics%--tag-from-file=LYRICS="%lyricsfile%"%haslyrics% -T "DISCNUMBER=%cdnumber%" -T "TOTALDISCS=%totalcds%" -T "TOTALTRACKS=%numtracks%" %hascover%--picture="%coverfile%"%hascover% %source% -o %dest%


TOC of the extracted CD

Track | Start | Length | Start sector | End sector
---------------------------------------------------------
1 | 0:00.00 | 4:00.28 | 0 | 18027
2 | 4:00.28 | 4:29.29 | 18028 | 38231
3 | 8:29.57 | 3:58.41 | 38232 | 56122
4 | 12:28.23 | 4:21.61 | 56123 | 75758
5 | 16:50.09 | 7:03.56 | 75759 | 107539
6 | 23:53.65 | 3:57.26 | 107540 | 125340
7 | 27:51.16 | 4:13.65 | 125341 | 144380
8 | 32:05.06 | 4:06.29 | 144381 | 162859
9 | 36:11.35 | 4:44.69 | 162860 | 184228
10 | 40:56.29 | 3:51.52 | 184229 | 201605
11 | 44:48.06 | 4:35.13 | 201606 | 222243
12 | 49:23.19 | 3:55.12 | 222244 | 239880


Range status and errors

Selected range

Filename D:\incoming\Various Artists\AQUAPLUS VOCAL COLLECTION VOL.6\V.A.-.[AQUAPLUS.VOCAL.COLLECTION.VOL.6].专辑.(FLAC).wav

Timing problem 0:42:28

Peak level 99.8 %
Extraction speed 261.4 X
Copy CRC 97CE6F0A
Copy finished

No errors occurred

End of status report



专辑曲目

01. just now Clap 须谷尚子 松冈纯也 『フルアニ』OP
02. 希望の风 元田恵美 须谷尚子 石川真也 『フルアニ』ED
03. 君だけの旅路 Suara 须谷尚子 衣笠道雄 『うたわれるもの 散り行くものへの子守唄』 OP
04. 运命-SADAME- 柚木凉香 牛岛弥美 豆田将 『うたわれるもの 散り行くものへの子守唄』 挿入歌
05. キミガタメ Suara 须谷尚子 下川直哉 『うたわれるもの 散り行くものへの子守唄』 ED
06. Remote Viewing 奥井雅美 奥井雅美 衣笠道雄 『Routes PE/Routes PORTABLE』 OP
07. 一番星 Suara U 石川真也 OVA『ToHeart2』OP
08. Heart to Heart 上原れな 须谷尚子 中上和英 『ToHeart2 AnotherDays』OP
09. コスモスのように 上原れな 须谷尚子 石川真也 『ToHeart2 AnotherDays』ED
10. 真・うたわれるもののテーマ 小山刚志 小山刚志 小山刚志/水岛康宏
11. just now ReMIX Clap 须谷尚子 松冈纯也 衣笠道雄 ReMIX
12. Heart to Heart ReMIX 上原れな 须谷尚子 中上和英 松冈纯也 ReMIX

正在读取……

这里是其它用户补充的资源(我也要补充):

暂无补充资源
正在加载,请稍等...

点击查看所有37网友评论

 

(?) [公告]留口水、评论相关规则 | [活动]每日签到 轻松领取电驴经验

    小贴士:
  1. 类似“顶”、“沙发”之类没有营养的文字,对勤劳贡献的楼主来说是令人沮丧的反馈信息。
  2. 提问之前请再仔细看一遍楼主的说明,或许是您遗漏了。
  3. 勿催片。请相信驴友们对分享是富有激情的,如果确有更新版本,您一定能搜索到。
  4. 请勿到处挖坑绊人、招贴广告。既占空间让人厌烦,又没人会搭理,于人于己都无利。
  5. 如果您发现自己的评论不见了,请参考以上4条。