v

您的位置:VeryCD音乐华语音乐

音乐资源事务区

 

网友评论:李荣浩 -《模特》[APE]

 

BRAUN (楼主)   2015/01/20 09:59:40  1楼   举报

引用
Exact Audio Copy V1.0 beta 4 from 7. December 2014

EAC extraction logfile from 6. February 2015, 23:12

李荣浩 / 模特

Used drive : PIONEER BD-ROM BDC-207 Adapter: 1 ID: 0

Read mode : Secure
Utilize accurate stream : Yes
Defeat audio cache : Yes
Make use of C2 pointers : No

Combined read/write offset correction : 0
Overread into Lead-In and Lead-Out : No
Fill up missing offset samples with silence : Yes
Delete leading and trailing silent blocks : No
Null samples used in CRC calculations : Yes
Used interface : Native Win32 interface for Win NT & 2000

Used output format : Monkey's Audio Lossless Encoder
Selected bitrate : High Lossless Compression
Quality : High
Add ID3 tag : Yes
Command line compressor : C:\Program Files (x86)\Monkey's Audio\MAC.exe


TOC of the extracted CD

Track | Start | Length | Start sector | End sector
---------------------------------------------------------
1 | 0:00.00 | 4:34.33 | 0 | 20582
2 | 4:34.33 | 5:07.18 | 20583 | 43625
3 | 9:41.51 | 4:50.46 | 43626 | 65421
4 | 14:32.22 | 4:57.60 | 65422 | 87756
5 | 19:30.07 | 3:28.40 | 87757 | 103396
6 | 22:58.47 | 4:16.11 | 103397 | 122607
7 | 27:14.58 | 5:04.08 | 122608 | 145415
8 | 32:18.66 | 4:45.69 | 145416 | 166859
9 | 37:04.60 | 4:20.67 | 166860 | 186426
10 | 41:25.52 | 5:36.60 | 186427 | 211686


Range status and errors

Selected range

Filename C:\Program Files (x86)\easyMule\Incoming\李荣浩.-.[模特].专辑.(APE).wav

Peak level 100.0 %
Extraction speed 4.1 X
Range quality 100.0 %
Copy CRC B11B8301
Copy OK

No errors occurred

End of status report

---- CUETools DB Plugin V2.1.4

[CTDB TOCID: Q7UynIj26rFUWGoaZmNsoXjwY90-] found
Submit result: Q7UynIj26rFUWGoaZmNsoXjwY90- has been confirmed
Track | CTDB Status
1 | (3/3) Accurately ripped
2 | (3/3) Accurately ripped
3 | (3/3) Accurately ripped
4 | (3/3) Accurately ripped
5 | (3/3) Accurately ripped
6 | (3/3) Accurately ripped
7 | (3/3) Accurately ripped
8 | (3/3) Accurately ripped
9 | (3/3) Accurately ripped
10 | (3/3) Accurately ripped
引用
REM DATE 2013
REM DISCID 8A0B060A
REM COMMENT "ExactAudioCopy v1.0b4"
PERFORMER "李荣浩"
TITLE "模特"
FILE "李荣浩.-.[模特].专辑.(APE).ape" WAVE
TRACK 01 AUDIO
TITLE "李白"
PERFORMER "李荣浩"
INDEX 01 00:00:00
TRACK 02 AUDIO
TITLE "模特"
PERFORMER "李荣浩"
INDEX 00 04:33:33
INDEX 01 04:34:33
TRACK 03 AUDIO
TITLE "两个人"
PERFORMER "李荣浩"
INDEX 00 09:40:52
INDEX 01 09:41:51
TRACK 04 AUDIO
TITLE "太坦白"
PERFORMER "李荣浩"
INDEX 00 14:31:22
INDEX 01 14:32:22
TRACK 05 AUDIO
TITLE "老伴"
PERFORMER "李荣浩"
INDEX 00 19:29:07
INDEX 01 19:30:07
TRACK 06 AUDIO
TITLE "演员和歌手"
PERFORMER "李荣浩&陈坤"
INDEX 00 22:57:47
INDEX 01 22:58:47
TRACK 07 AUDIO
TITLE "都一样"
PERFORMER "李荣浩"
INDEX 00 27:13:59
INDEX 01 27:14:58
TRACK 08 AUDIO
TITLE "有一个姑娘"
PERFORMER "李荣浩"
INDEX 00 32:17:66
INDEX 01 32:18:66
TRACK 09 AUDIO
TITLE "蓝绿"
PERFORMER "李荣浩"
INDEX 00 37:03:61
INDEX 01 37:04:60
TRACK 10 AUDIO
TITLE "拜拜"
PERFORMER "李荣浩"
INDEX 00 41:24:54
INDEX 01 41:25:52


[+3] [0] [回复]

风尘一侠   2015/01/24 00:51:19  2楼   举报

歌手3上开始听李荣浩的歌,的确如传说般,外貌似周董,声音如陈奕迅。希望音乐新人创作出更多的作品,让歌迷以后以你为标签记住别人。


[+1] [0] [回复]

sdwdj123   2015/01/24 01:03:42  3楼   举报

十大


[0] [0] [回复]

4楼已被删除

chenxiping945   2015/01/24 09:50:58  5楼   举报

模特很好听,下专辑试试,感谢分享~


[0] [0] [回复]

6-13楼已被删除

电电电路路路   2015/01/25 12:57:20  14楼   举报

感谢亲!你真的很伟大!


[0] [0] [回复]

gxd6688   2015/01/25 15:02:32  15楼   举报

很有磁性的声音,返场的翻唱也有自己强烈的风格


[0] [0] [回复]

一任梅花作雪飞   2015/01/25 19:34:20  16楼   举报

很喜欢李荣浩的音乐风格。这张《模特》真是怎么听怎么舒服!感谢分享无损音频!


[0] [0] [回复]

17-19楼已被删除

BRAUN (楼主)   2015/01/26 07:36:52  20楼   举报

引用(吾小本_sina @ 2015-01-25, 09:07 PM) *
你们是怎么下载的啊

你的级别是看不到电驴的下载链接的,所以无法下载。不过我在专辑介绍里面有别的链接,你可以无障碍下载。


[0] [0] [回复]

alexstar   2015/01/26 12:33:34  21楼   举报

模特不错,听了就喜欢


[0] [0] [回复]

guangxu216   2015/01/26 14:14:08  22楼   举报

就等他了~不错~给力。


[0] [0] [回复]

hxg507   2015/01/26 14:40:13  23楼   举报

下载了,感谢。


[0] [0] [回复]

24楼已被删除

hbf0713   2015/01/26 15:18:41  25楼   举报

大陆歌手,很久没出这么牛逼的了。。。


[0] [0] [回复]

毛驴儿快快跑   2015/01/26 15:50:27  26楼   举报

下不了啊


[0] [0] [回复]

zzwlgs   2015/01/26 16:58:09  27楼   举报

确实是很好的歌手,要不是楼主推荐,险些错过!,非常感谢


[0] [0] [回复]

老牛弹琴   2015/01/26 18:56:05  28楼   举报

近今年罕见的真正的歌手,配得上牛逼二字!谢楼主分享


[0] [0] [回复]

1034525713   2015/01/26 21:03:34  29楼   举报

一个很好的歌手~相识恨晚


[0] [0] [回复]

30-32楼已被删除

tsfish   2015/01/27 14:43:29  33楼   举报

来晚了,不能下了


[0] [0] [回复]

MIC0604   2015/01/27 15:03:42  34楼   举报

下载不了啊


[0] [0] [回复]

barrycheung   2015/01/27 15:12:52  35楼   举报

这张好听!超赞!


[0] [0] [回复]

md369   2015/01/27 16:35:15  36楼   举报

下载了,感谢。


[0] [0] [回复]

xiongjj8   2015/01/27 18:33:04  37楼   举报

歌手3上认识的,声音真的不错,非常有才华的唱作型歌手,前途无量!


[0] [0] [回复]

alucardzsj   2015/01/28 00:50:15  38楼   举报

支持一下,希望以后出更好的歌


[0] [0] [回复]

loki0607   2015/01/28 08:46:14  39楼   举报

很有磁性的声音。这张《模特》真是怎么听怎么舒服!


[0] [0] [回复]

40楼已被删除

vantiger   2015/01/28 09:54:56  41楼   举报

非常不错的音乐,不一样的风格,不一样的特色……


[+1] [0] [回复]

kinsusan   2015/01/28 11:44:24  42楼   举报

好东西,谢谢分享!


[0] [0] [回复]

43-44楼已被删除

mansonwong   2015/01/28 15:56:24  45楼   举报

cue确定没问题?我用foobar2000读不出来cue啊


[0] [0] [回复]

nmgwr   2015/01/28 16:11:57  46楼   举报

感谢楼主分享,李荣浩的模特和李白超喜欢。


[0] [0] [回复]

要学达芬奇_sina   2015/01/28 18:49:16  47楼   举报

去年模特得奖我第一次听了李荣浩,两个月来已经把李荣浩循环无数遍,推荐给无数人了,除了李白和模特之外也喜欢蓝绿。很潇洒的专辑。


[0] [0] [回复]

3911557   2015/01/29 10:04:53  48楼   举报

非常棒的一张专辑。百听不厌啊,感谢楼主分享好音乐。


[0] [0] [回复]

charleszc   2015/01/29 13:24:05  49楼   举报

不错,挺好听的!


[0] [0] [回复]

BRAUN (楼主)   2015/01/29 13:45:39  50楼   举报

引用(mansonwong @ 2015-01-28, 03:56 PM) *
cue确定没问题?我用foobar2000读不出来cue啊

实在不行把1楼的CUE内容复制到你下载的CUE文件里面,当然事先把原来的内容删掉,最后保存一下试试。我这里直接用Foobar2000打开没问题,用EAC做出来的源文件,出问题的可能性不大,99%是你那里的问题。


[+1] [0] [回复]


    小贴士:
  1. 类似“顶”、“沙发”之类没有营养的文字,对勤劳贡献的楼主来说是令人沮丧的反馈信息。
  2. 提问之前请再仔细看一遍楼主的说明,或许是您遗漏了。
  3. 勿催片。请相信驴友们对分享是富有激情的,如果确有更新版本,您一定能搜索到。
  4. 请勿到处挖坑绊人、招贴广告。既占空间让人厌烦,又没人会搭理,于人于己都无利。
  5. 如果您发现自己的评论不见了,请参考以上4条。

(?) [公告]留口水、评论相关规则