v

您的位置:VeryCD音乐古典音乐

音乐资源事务区


Xuefei Yang -(Si ji (Four Seasons))[APE]

  • 状态: 精华资源
  • 摘要:
    古典类型室内乐
    发行时间2005年
  • 时间: 2014/08/30 10:14:20 发布 | 2014/09/02 08:34:14 更新
  • 分类: 音乐  古典音乐 

restretto

精华资源: 56

全部资源: 56

相关: 分享到新浪微博   转播到腾讯微博   分享到开心网   分享到人人   分享到QQ空间   订阅本资源RSS更新   美味书签  subtitle
该内容尚未提供权利证明,无法提供下载。
专辑英文名Si ji (Four Seasons)
艺术家Xuefei Yang
古典类型室内乐
资源格式APE
发行时间2005年
地区美国
简介

IPB Image


专辑简介


这是我国最著名的吉他演奏家杨雪霏的第二张个人专辑,也是她出国深造之后作为一位具有国际影响力的演奏家录制的第一张专辑。这张专辑将和王雅梦在GHA的专辑一样成为全世界吉他爱好者了解中国吉他演奏家的窗口。

从这张专辑中,我们也可以领略到杨雪霏深邃的乐思和高超的技术。同时,这还是一张不可多得的天碟级录音佳作,是我近年来听到的最好的唱片之一。
这张唱片,杨雪霏亲自撰写了每一首作品的介绍:
“Si Ji“ 的中文意思是“四季“, 我选这个名作为这中国色彩作品集的名字.。我希望这张CD能带给你多姿多彩的境像,,就如四季一样。
作为一个音乐家,,我有责任通过音乐把不同文化及民族联系起来.。作为中国的艺术家,我想把我国家的文化注入我的音乐.。作为一个吉他演奏家, 我希望为扩大结他的曲目,令吉他有更多的可能性及丰富她的技术层面。
吉他是来自中东的,介于中国和西方之间。中国的文化是优雅、浪漫、意味深长和可造性的,就像中国画一样。这些优点正好用于吉他中。当录制完这张唱片后,我被这乐器所能做到的而感动--
原来那些来自东方的构思和概念可帮助我们探索及增加什么是真正的西方音乐的知识。
我总是用心来造音乐,我希望你亦用心来听。

曲目分析:
《彝族舞曲》相信大家都不陌生,无论是琵琶原曲还是早年流行的殷飚改编的吉他版,都是吉他爱好者们耳熟能详的音符。杨雪霏的改编是最具古典吉他化的一个版本。在她十多岁的时候就已经在电视上演奏了这首她自己改编的作品。《彝族舞曲》由著名的琵琶演奏家王惠然创作于1965年,音乐描写了彝族人民在传统火把节夜晚的欢庆场面。在她的改编中,她尝试通过模仿一些琵琶的技巧来表达中国音乐的特征--在保留原风情的同时也保持了吉他丰富的音响。相对于杨雪霏出国前的录音,这个版本的演绎有了本质的提高,音乐更加流畅自然,除了绚丽的技术和音色,我们更能领略到原曲作者和编曲者展现给我们的音画意境。
卡洛斯 多美尼科尼是一位现在旅居柏林的意大利吉他演奏家、作曲家。他曾在伊斯坦布尔生活和教学了多年。他所创作的《科庸巴巴》曾经风靡全球。杨雪霏和他在2002年的新加坡吉他艺术节上见面。此后不久,他决定创作一部受《易经》启发的吉他作品。《易经》在世界哲学典籍中占有一个特别的位置,不仅仅因为这是一部最古老的书籍,它还阐述了一个完全不同于平常的世界观。所有的存在都处于变化状态--时间是生命的本质。杨雪霏从多美尼科尼于2003年完成并题献给她的7首作品的组曲中选出6首在本专辑中。
卡洛斯曾经向她介绍他的一位朋友,奥地利吉他演奏家、作曲家Dietmar Ungerank创作的作品。从1987年开始他就致力为中国武汉画家小白的画作而创作一部抒情作品集,包括“引子“和四首“声响和意象“就是一个典型的例子。受苏画作的影响,Ungerank将他的四幅画作改写成音乐,采用了中国的五声音阶和特殊调弦法。在最后一个乐章“Land Circus“,他采用了一首中国传统旋律作为主题和动机。四首“声响和意象“从一个附加的引子开始。
杰拉尔德 加西亚是一位具有东方背景的世界知名的吉他演奏家和作曲家。杨雪霏14岁的时候第一次在香港和他见面,在她到达伦敦开始他们就成了好朋友。《玛依拉》是一位歌唱这首欢快的新疆传统歌曲的美丽女孩的名字。杰拉尔德将西方和声和结构和这首新疆旋律有机地结合在一起。听者或许会以为这是一首西方作品,但是中国人马上就能想起这首熟悉的旋律。
《天堂鸟》(应为《天乌乌》,作者似乎将“乌”字误认为“鸟”字)是一首福建民谣,歌词非常通俗,“天乌乌,要下雨,阿公背锄头要锄芋……“,这首歌曲在福建、台湾民间广为传唱,可以说是一首民俗歌曲,而经过杨雪霏一演绎,似乎变成了一首艺术作品。《灯笼舞》是中国南部的民谣,它们都是东方儿歌的缩影,由日本吉他演奏家Shuko SHibata改编。
大家可能不知道杨雪霏除了是一位吉他演奏家外,还学习钢琴多年。她改编了一首自己很喜欢的重要中国钢琴作品。1934年,俄国作曲家、钢琴家Tehere-pnine为了收集中国风格的作品而组织了一次比赛。这次比赛令第一首中国作品具有国际知名度,贺绿汀创作《牧童短笛》获得了一等奖。作曲家运用西方的A-B-A曲式来创作这部作品。A段是令人赏心的笛声而B段是民间舞蹈。他运用复调手法有效地强调了中国竹笛的旋律。
Stephen Funk Pearson的父母都是音乐家。他在致力于吉他演奏之前曾经尝试了许多乐器。他在美国的Vassar学习哲学,音乐和作曲。正是因为不寻常的音乐背景,Pearson成长为一位极有个性的作曲家。当着手于这张“中国灵感”专辑时,他非常感兴趣并为之提供了《南中国海之静寂》。这首作品是为吉他独奏而创作。这首作品在指板上多加了一个弦桥(saddle),使吉他具有两套同时发出不同声音和定弦的琴弦。有些音高并不完美,但是它构成了这部作品的部分特色。事实上,因为这样不寻常的定弦,要视奏这部作品非常棘手。吉他听起来像日本13弦古筝。
Evan Hirschelman原来是一位电吉他演奏家,后来转向了古典吉他。他所创作的《三冥想曲》显然受到了他的“摇滚”背景的影响。这部作品也是题献给杨雪霏的。在本专辑里选录了三首作品中的两首。第二首充满了异国音调。杨雪霏说在演奏这部作品的时候就像躺在一弯安静的沙滩上冥想。
Steve Goss和杨雪霏是校友,都毕业于伦敦皇家音乐学院,他们师从同样的老师--Michael Lewin。他现在是一所大学的作曲系主任,他的作品在全世界具有影响。他对中国文化非常感兴趣。《举起红灯笼》是为杨雪霏创作的。作者对作品的解释为:
《蓝风筝》为同名电影所作,电影描写文革时期的国内悲剧。电影中,一位男孩的风筝成为在苦难时期希望和自由的象征。这首音乐描写了风筝在风中自由飞翔的情景,一直在变换速度,一直在改变方向,漂泊不定,前途未卜。
《黄土地》是陈凯歌执导的电影,以一个封建村庄为背景。一位女孩受父母包办婚姻将要嫁给一个老头,当一位战士到这个村庄为红军收集民歌的时候,他告诉她有关妇女的自由。当她求他带她离开时,他需要等待上级的准许,但是她不能等那么久。她结婚后的一天,她投身大海,以她的方式获得了自由。电影中,女孩虽然拥有一幅好嗓子,但是她还是羞于对战士唱出心声。在一个只有她独处的场面里,她唱了一首《乡愁曲》,当然,战士从没听过这首歌。专辑里的作品就是根据这首歌曲创作的。
《霸王别姬》是陈凯歌1991年执导的一部电影。故事是关于京剧的。Steve从老式京剧中汲取素材,运用响板以及将吉他第三弦调到#G的手法来模仿伴奏的乐团。在这部京剧中,楚霸王被敌人团团包围,所有的人都弃他而去,只有虞姬至死不渝。最后她在狂舞中拔剑自刎身亡。
2004年新年伊始,杨雪霏收到《四季》的乐谱,这是吉他家Thierry Rougier为她而作的组曲,他的音乐受南美和法国南部音乐的影响。他和中国的器乐演奏家有着密切的联系。这部作品是受琵琶、二胡和笙的声音启迪而创作的。为了模仿这些乐器多彩的声响,她运用了很多吉他技法。这部作品运用“商”调式,吉他的第5弦降低到#F。《春》中,各种声音喷涌而出;《夏》运用的特殊技法是右手演奏和弦,左手在指板上击打出音符,营造出一种夏季的那种很酷很新鲜的感觉;《秋》最有趣的是最后一个音,留给听者无限想象;《冬》再现了先前的主题。





杨雪霏,著名的古典吉他演奏家,是中国古典音乐家在国际舞台的代表之一。在其学生时代,杨雪霏就已高超的天赋备受瞩目。18岁时获英国著名吉他手约翰·克里斯托夫·威廉斯赠送他的珍藏吉他斯莫尔曼吉他。2005年获英国皇家音乐学院选为院士,并与百代唱片签约。多年来活跃在国际主流音乐舞台,杨雪霏被古典音乐电台Classic FM[1] 评为“我们时代最杰出的一百位古典音乐家之一”。

10岁那年,西班牙大使观看了她的吉他首演。12岁,她不顾父母的反对,拒绝了北京最好的中学的邀请,进入了音乐学院。当时的条件异常艰苦,她甚至找不到一把好吉他,直到1995年威廉姆斯来中国巡演结束后把自己的吉他留给了杨雪霏。14岁那年,她来到马德里,为高龄眼盲的作曲家罗德里格演奏了他创作的那首不朽名作《阿兰胡埃斯协奏曲》。[3]
2000年6月杨雪霏成为中国第一个取得学士学位的吉他本科毕业生,同年9月她作为第一个中国学生,也是全球第一个吉他学生获得英国皇家音乐学院委员会全额奖学金,赴英随米高卢因(Michael Lewin)及约翰米尔斯(John Mills)修读研究生课程。2002年以罕有的高分取得由英国皇室成员颁授学院的演奏家文凭、研究生文凭及院长特别奖,并获邀与皇家音乐专科学院交响乐团合作演出阿兰胡埃斯协奏曲。2012年以杰出成就,被授予皇家音乐学院院士荣誉。






Exact Audio Copy V1.0 beta 3 from 29. August 2011

EAC 抓取日志文件从30. 八月 2014, 9:58

Xuefei Yang / Si ji (Four Seasons)

使用驱动器 :PIONEER DVD-RW DVR-218L Adapter: 3 ID: 1

读取模式 : 可靠Secure
使用精确流 : 是
清空音频缓存 : 否
使用 C2 指示器 : 是

组合读写偏移校正: : 0
读取 Lead-In 和 Lead-Out : 否
用静音填充抓取中丢失偏移的采样 : 是
去除首尾静音块 : 否
在CRC 计算中使用了空样本 : 是
已用接口 : Win NT 及 2000 本地 Win32 接口

所用输出模式: : 内部 WAV 函数
样本格式 : 44.100 Hz; 16 Bit; 立体声


已抓取 CD 的 TOC

音轨 | 起始 | 长度 | 起始扇区 | 结束扇区
--------------------------------------------
1 | 0:00.00 | 5:56.38 | 0 | 26737
2 | 5:56.38 | 2:59.13 | 26738 | 40175
3 | 8:55.51 | 2:00.30 | 40176 | 49205
4 | 10:56.06 | 2:27.33 | 49206 | 60263
5 | 13:23.39 | 1:40.09 | 60264 | 67772
6 | 15:03.48 | 1:41.09 | 67773 | 75356
7 | 16:44.57 | 1:55.58 | 75357 | 84039
8 | 18:40.40 | 1:11.08 | 84040 | 89372
9 | 19:51.48 | 1:45.51 | 89373 | 97298
10 | 21:37.24 | 2:17.74 | 97299 | 107647
11 | 23:55.23 | 2:05.28 | 107648 | 117050
12 | 26:00.51 | 1:22.50 | 117051 | 123250
13 | 27:23.26 | 4:04.24 | 123251 | 141574
14 | 31:27.50 | 4:28.64 | 141575 | 161738
15 | 35:56.39 | 2:41.55 | 161739 | 173868
16 | 38:38.19 | 2:09.41 | 173869 | 183584
17 | 40:47.60 | 3:07.25 | 183585 | 197634
18 | 43:55.10 | 1:17.60 | 197635 | 203469
19 | 45:12.70 | 1:44.69 | 203470 | 211338
20 | 46:57.64 | 2:42.21 | 211339 | 223509
21 | 49:40.10 | 3:44.29 | 223510 | 240338
22 | 53:24.39 | 5:04.01 | 240339 | 263139
23 | 58:28.40 | 2:01.04 | 263140 | 272218
24 | 60:29.44 | 1:50.13 | 272219 | 280481
25 | 62:19.57 | 2:19.53 | 280482 | 290959
26 | 64:39.35 | 2:53.17 | 290960 | 303951


范围状态及错误

已选择范围

文件名 F:\Emuel\Xuefei Yang - Si ji (Four Seasons).wav

峰值电平 99.6 %
抓取速度 5.7 X
范围质量 100.0 %
复制 CRC 3B021425
复制成功

没有错误发生

状态报告结尾



专辑曲目

01. Yi dance [0:05:56.38]
Chorus: Xuefei Yang

02. Shepherd Boy with Flute [0:02:59.13]
Chorus: Xuefei Yang

03. Intonation & 4 Sound-and-Image Compositions, for guitar: Intonation [0:02:00.30]
Chorus: Xuefei Yang

04. Intonation & 4 Sound-and-Image Compositions, for guitar: Long Out-stretched Pier with its Shadows [0:02:27.33]
Chorus: Xuefei Yang

05. Intonation & 4 Sound-and-Image Compositions, for guitar: Wind on The Hill [0:01:40.09]
Chorus: Xuefei Yang

06. Intonation & 4 Sound-and-Image Compositions, for guitar: Waiting for Guests [0:01:41.09]
Chorus: Xuefei Yang

07. Intonation & 4 Sound-and-Image Compositions, for guitar: Land Circus [0:01:55.58]
Chorus: Xuefei Yang

08. Songs of Oriental Children, for guitar: Heavenly Bird (Fujian) [0:01:11.08]
Chorus: Xuefei Yang

09. Songs of Oriental Children, for guitar: Lantern Song (South China) [0:01:45.51]
Chorus: Xuefei Yang

10. Mayila, for guitar [0:02:17.74]
Chorus: Xuefei Yang

11. Meditations (3) for guitar: No. 2 [0:02:05.28]
Chorus: Xuefei Yang

12. Meditations (3) for guitar: No. 1 [0:01:22.50]
Chorus: Xuefei Yang

13. The Blue Kite, for guitar [0:04:04.24]
Chorus: Xuefei Yang

14. Yellow Earth, for guitar [0:04:28.64]
Chorus: Xuefei Yang

15. Farewell My Concubine, for guitar [0:02:41.55]
Chorus: Xuefei Yang

16. I Ching, for guitar: 1. T'ai [0:02:09.41]
Chorus: Xuefei Yang

17. I Ching, for guitar: 3. Lin [0:03:07.25]
Chorus: Xuefei Yang

18. I Ching, for guitar: 4. T'ung Jen [0:01:17.60]
Chorus: Xuefei Yang

19. I Ching, for guitar: 5. Huan [0:01:44.69]
Chorus: Xuefei Yang

20. I Ching, for guitar: 6. K'uei [0:02:42.21]
Chorus: Xuefei Yang

21. I Ching, for guitar: 7. Chieh [0:03:44.29]
Chorus: Xuefei Yang

22. South China Sea Peace, for prepared guitar [0:05:04.01]
Chorus: Xuefei Yang

23. Four Seasons, for guitar: Spring [0:02:01.04]
Chorus: Xuefei Yang

24. Four Seasons, for guitar: Summer [0:01:50.13]
Chorus: Xuefei Yang

25. Four Seasons, for guitar: Autumn [0:02:19.53]
Chorus: Xuefei Yang

26. Four Seasons, for guitar: Winter [0:02:53.17]
Chorus: Xuefei Yang

正在读取……

这里是其它用户补充的资源(我也要补充):

暂无补充资源
正在加载,请稍等...

点击查看所有90网友评论

 

(?) [公告]留口水、评论相关规则 | [活动]每日签到 轻松领取电驴经验

    小贴士:
  1. 类似“顶”、“沙发”之类没有营养的文字,对勤劳贡献的楼主来说是令人沮丧的反馈信息。
  2. 提问之前请再仔细看一遍楼主的说明,或许是您遗漏了。
  3. 勿催片。请相信驴友们对分享是富有激情的,如果确有更新版本,您一定能搜索到。
  4. 请勿到处挖坑绊人、招贴广告。既占空间让人厌烦,又没人会搭理,于人于己都无利。
  5. 如果您发现自己的评论不见了,请参考以上4条。