v

您的位置:VeryCD音乐古典音乐

音乐资源事务区


Adam Holzman -(Sor- Morceau de Concert; Six Valses et un Galop)[APE]

  • 状态: 精华资源
  • 摘要:
    古典类型室内乐
    发行时间1996年
  • 时间: 2014/08/30 01:13:44 发布 | 2014/09/02 08:35:31 更新
  • 分类: 音乐  古典音乐 

restretto

精华资源: 56

全部资源: 56

相关: 分享到新浪微博   转播到腾讯微博   分享到开心网   分享到人人   分享到QQ空间   订阅本资源RSS更新   美味书签  subtitle
该内容尚未提供权利证明,无法提供下载。
专辑英文名Sor- Morceau de Concert; Six Valses et un Galop
艺术家Adam Holzman
古典类型室内乐
资源格式APE
发行时间1996年
地区德国
简介

IPB Image

专辑简介


本张专辑同样收录有五首索尔比较晚期的作品,其中作品52号的《乡村幻想曲》与片中第一首的《幻想曲》,这两首乐曲的结构、规模和长度就和索尔其它的《幻想曲》相似,都是由二~三个乐章组成,而且基本上都是以序奏般的第一乐章加上小行板的第二乐章(有些作品为主题与变奏形式),之后再以快板的乐章结束。类似索尔这种古典样式的《幻想曲》,其曲式和结构完全不同于文艺复兴或巴洛克时期的《幻想曲》,是一种介于奏鸣曲和嬉游曲中间的作品形式。索尔的作品54号《音乐会断章》,近年来似乎有愈来愈多的演奏家在音乐会上演奏,此曲的格调高雅、结构工整,非常能够反映出索尔在音乐上无与伦比的演奏技巧和写作才华,另一方面,在索尔这些晚期的作品中,更可以发现索尔逐渐由古典主义转入浪漫主义的脉胳和轨迹。


亚当·霍尔兹曼(Adam Holzman)
亚当·霍尔兹曼是当代美国最杰出的古典吉他演奏家之一,他曾先后五次在国际著名吉他大赛中获奖,包括1983年的美国吉他基金会吉他大赛的第一名、第九届意大利Gargnano国际表演艺术大赛的头奖、第三届多伦多国际吉他艺术节的第三名等等。在演出方面,霍尔兹曼也是一个活跃人物。他的足迹遍及整个欧美、各个著名音乐厅。象阿姆斯特丹的Concertgebouw、纽约的考夫曼、梅尔金、卡耐基音乐厅等等。此外他还参加了很多音乐节以及系列旅行音乐会的演出活动。霍尔兹曼到目前为止已在Naxos以及HRH唱片公司录制了多张唱片。尤其是在Naxos录制的索尔、庞塞、劳罗、梅尔兹等多位作曲家的作品集,无论是在专业评论方面还是销售业绩方面都有非常杰出的表现。此外,霍尔兹曼也在新音乐的探索上倾注了热情,他受作曲家阿德勒(Samuel Adler)委托协助后者创作勒他的第一部吉他协奏曲,同时,他也担当了很多吉他新作的首演任务,这其中包括了著名的赫尔普斯(Robert Helps)、迪安斯(Roland Dyens)、以及皮尔森(Stephen Funk Pearson)等人的作品。霍尔兹曼是德克萨斯大学吉他系的创始人,在那里,他领导着一个非常活跃的吉他工作室。1992年至1994年,霍尔兹曼在墨西哥蒙特雷获得了杰出艺术大师的称号。2001年,他则分别在佛罗里达州立大学和德克萨斯大学获得了Ernst von Dohanyi杰出贡献奖以及Robert W.Hamilton美艺术奖。





Exact Audio Copy V1.0 beta 3 from 29. August 2011

EAC 抓取日志文件从30. 八月 2014, 0:59

Adam Holzman / Sor: Morceau de Concert; Six Valses et un Galop

使用驱动器 :PIONEER DVD-RW DVR-218L Adapter: 3 ID: 1

读取模式 : 可靠Secure
使用精确流 : 是
清空音频缓存 : 否
使用 C2 指示器 : 是

组合读写偏移校正: : 0
读取 Lead-In 和 Lead-Out : 否
用静音填充抓取中丢失偏移的采样 : 是
去除首尾静音块 : 否
在CRC 计算中使用了空样本 : 是
已用接口 : Win NT 及 2000 本地 Win32 接口

所用输出模式: : 内部 WAV 函数
样本格式 : 44.100 Hz; 16 Bit; 立体声


已抓取 CD 的 TOC

音轨 | 起始 | 长度 | 起始扇区 | 结束扇区
--------------------------------------------
1 | 0:00.00 | 2:00.65 | 0 | 9064
2 | 2:00.65 | 4:09.45 | 9065 | 27784
3 | 6:10.35 | 5:24.20 | 27785 | 52104
4 | 11:34.55 | 3:55.45 | 52105 | 69774
5 | 15:30.25 | 7:25.45 | 69775 | 103194
6 | 22:55.70 | 12:47.10 | 103195 | 160729
7 | 35:43.05 | 4:03.72 | 160730 | 179026
8 | 39:47.02 | 10:50.00 | 179027 | 227776
9 | 50:37.02 | 1:40.65 | 227777 | 235341
10 | 52:17.67 | 2:01.35 | 235342 | 244451
11 | 54:19.27 | 1:47.20 | 244452 | 252496
12 | 56:06.47 | 2:02.18 | 252497 | 261664
13 | 58:08.65 | 2:18.27 | 261665 | 272041
14 | 60:27.17 | 2:11.18 | 272042 | 281884
15 | 62:38.35 | 2:03.57 | 281885 | 291166


范围状态及错误

已选择范围

文件名 F:\Emuel\Adam Holzman - Sor- Morceau de Concert; Six Valses et un Galop.wav

峰值电平 100.0 %
抓取速度 6.0 X
范围质量 100.0 %
复制 CRC CBFA3DF7
复制成功

没有错误发生

状态报告结尾



专辑曲目

01. Fantasie pour guitare seule: 1. Andante largo [0:02:00.65]
02. Fantasie pour guitare seule: 2. Andantino [0:04:09.45]
03. Fantasie pour guitare seule: 3. Allegretto vivace [0:05:24.20]
04. Fantasie Villageouise, Op. 52: 1. Andantino [0:03:55.45]
05. Fantasie Villageouise, Op. 52: 2. Appel - Danse: Allegretto - Priere [0:07:25.45]
06. Morceau de Concert, Op. 54 1. Ingtroduction: Andante largo - Theme and Variations [0:12:47.10]
07. 2. Allegro [0:04:03.72]
08. Souvenirs d'une Soiree a Berlin, Op. 56 Andante Allegretto: Mouvement de Valser [0:10:50.00]
09. Six Valses et un Galop, Op. 57 Valse No. 1 [0:01:40.65]
10. Six Valses et un Galop, Op. 57 Valse No. 2 [0:02:01.35]
11. Six Valses et un Galop, Op. 57 Valse No. 3 [0:01:47.20]
12. Six Valses et un Galop, Op. 57 Valse No. 4 [0:02:02.18]
13. Six Valses et un Galop, Op. 57 Valse No. 5 [0:02:18.27]
14. Six Valses et un Galop, Op. 57 Valse No. 6 [0:02:11.18]
15. Six Valses et un Galop, Op. 57 Galop [0:02:03.57]

正在读取……

这里是其它用户补充的资源(我也要补充):

暂无补充资源
正在加载,请稍等...

点击查看所有33网友评论

 

(?) [公告]留口水、评论相关规则 | [活动]每日签到 轻松领取电驴经验

    小贴士:
  1. 类似“顶”、“沙发”之类没有营养的文字,对勤劳贡献的楼主来说是令人沮丧的反馈信息。
  2. 提问之前请再仔细看一遍楼主的说明,或许是您遗漏了。
  3. 勿催片。请相信驴友们对分享是富有激情的,如果确有更新版本,您一定能搜索到。
  4. 请勿到处挖坑绊人、招贴广告。既占空间让人厌烦,又没人会搭理,于人于己都无利。
  5. 如果您发现自己的评论不见了,请参考以上4条。