v

您的位置:VeryCD音乐古典音乐

音乐资源事务区


Marc Teicholz -(Sor- Complete Guitar Music, Vol. 9)[APE]

  • 状态: 精华资源
  • 摘要:
    古典类型室内乐
    发行时间1998年
  • 时间: 2014/08/30 00:37:54 发布 | 2014/09/02 08:35:38 更新
  • 分类: 音乐  古典音乐 

restretto

精华资源: 56

全部资源: 56

相关: 分享到新浪微博   转播到腾讯微博   分享到开心网   分享到人人   分享到QQ空间   订阅本资源RSS更新   美味书签  subtitle
该内容尚未提供权利证明,无法提供下载。
专辑英文名Sor- Complete Guitar Music, Vol. 9
艺术家Marc Teicholz
古典类型室内乐
资源格式APE
发行时间1998年
地区德国
简介

IPB Image


专辑简介


在索尔的吉他作品中,除了富有高雅不凡的音乐格调之外,曲式和风格的多样性也是出类拔萃的。在本专辑中的所有作品除了作品40号的《幻想曲·序奏与主题变奏曲》外,其它的都可以听出来索尔受到古典乐派维也纳沙龙音乐与钢琴作品的影响,其中作品36和37号有着如弦乐四重奏般的趣味,作品42号则隐约可以感受到贝多芬钢琴音乐的痕迹。作品40号《幻想曲》,此曲的主题是取自传统的苏格兰民谣《小河畔》,旋律朴素优美,变奏部份高贵华丽,曲中运用了许多节奏、和声、音程、泛音等丰富的技巧变化,非常忠实的呈现出吉他音乐独特的美感。

Marc Teicholz毕业于耶鲁大学。1986年摘得了帕格尼尼大奖赛的桂冠之后,又于1989年荣获美国吉他基金会国际吉他大赛(GFA)金奖,1991年又在纽约中西艺术家大赛中夺魁。至今,他已在北美、东南亚等地成功举办了独奏音乐会,并录制了许多唱片,受到广大观众的一致好评。目前任教于旧金山音乐学院,他的演奏流畅明快,对比鲜明,非常适宜学生聆赏观摩。








Exact Audio Copy V1.0 beta 3 from 29. August 2011

EAC 抓取日志文件从30. 八月 2014, 0:07

Marc Teicholz / Sor: Complete Guitar Music, Vol. 9

使用驱动器 :PIONEER DVD-RW DVR-218L Adapter: 3 ID: 1

读取模式 : 可靠Secure
使用精确流 : 是
清空音频缓存 : 否
使用 C2 指示器 : 是

组合读写偏移校正: : 0
读取 Lead-In 和 Lead-Out : 否
用静音填充抓取中丢失偏移的采样 : 是
去除首尾静音块 : 否
在CRC 计算中使用了空样本 : 是
已用接口 : Win NT 及 2000 本地 Win32 接口

所用输出模式: : 内部 WAV 函数
样本格式 : 44.100 Hz; 16 Bit; 立体声


已抓取 CD 的 TOC

音轨 | 起始 | 长度 | 起始扇区 | 结束扇区
--------------------------------------------
1 | 0:00.00 | 3:34.45 | 0 | 16094
2 | 3:34.45 | 3:12.42 | 16095 | 30536
3 | 6:47.12 | 6:06.35 | 30537 | 58021
4 | 12:53.47 | 3:23.10 | 58022 | 73256
5 | 16:16.57 | 4:11.10 | 73257 | 92091
6 | 20:27.67 | 2:56.50 | 92092 | 105341
7 | 23:24.42 | 6:56.68 | 105342 | 136609
8 | 30:21.35 | 3:30.72 | 136610 | 152431
9 | 33:52.32 | 2:41.58 | 152432 | 164564
10 | 36:34.15 | 8:17.22 | 164565 | 201861
11 | 44:51.37 | 4:22.40 | 201862 | 221551
12 | 49:14.02 | 1:51.10 | 221552 | 229886
13 | 51:05.12 | 3:07.05 | 229887 | 243916
14 | 54:12.17 | 1:59.08 | 243917 | 252849
15 | 56:11.25 | 2:27.72 | 252850 | 263946
16 | 58:39.22 | 2:16.58 | 263947 | 274204


范围状态及错误

已选择范围

文件名 F:\Emuel\Marc Teicholz - Sor- Complete Guitar Music, Vol. 9.wav

峰值电平 100.0 %
抓取速度 5.7 X
范围质量 99.9 %
复制 CRC D2BB1A47
复制成功

没有错误发生

状态报告结尾



专辑曲目

01. op 36 No1 - Tempo di minuetto [0:03:34.45]
02. op 36 No1 - Allemande [0:03:12.42]
03. op 36 No2 - Lento cantabile [0:06:06.35]
04. op 36 No2 - Minuetto [0:03:23.10]
05. op 36 No3 - Andantino [0:04:11.10]
06. op 36 No3 - Chasse [0:02:56.50]
07. op 37 - Andante cantabile [0:06:56.68]
08. op 37 - Allegretto [0:03:30.72]
09. op 37 - Allegretto [0:02:41.58]
10. op 40 - Fantasie Ye Banks and Braes [0:08:17.22]
11. op 42 No1 - Cantabile [0:04:22.40]
12. op 42 No2 - Valse [0:01:51.10]
13. op 42 No3 - Andantino [0:03:07.05]
14. op 42 No4 - Valse [0:01:59.08]
15. op 42 No5 - Moderato [0:02:27.72]
16. op 42 No6 - Valse [0:02:16.58]

正在读取……

这里是其它用户补充的资源(我也要补充):

暂无补充资源
正在加载,请稍等...

点击查看所有32网友评论

 

(?) [公告]留口水、评论相关规则 | [活动]每日签到 轻松领取电驴经验

    小贴士:
  1. 类似“顶”、“沙发”之类没有营养的文字,对勤劳贡献的楼主来说是令人沮丧的反馈信息。
  2. 提问之前请再仔细看一遍楼主的说明,或许是您遗漏了。
  3. 勿催片。请相信驴友们对分享是富有激情的,如果确有更新版本,您一定能搜索到。
  4. 请勿到处挖坑绊人、招贴广告。既占空间让人厌烦,又没人会搭理,于人于己都无利。
  5. 如果您发现自己的评论不见了,请参考以上4条。