v

您的位置:VeryCD音乐古典音乐

音乐资源事务区


John Holmquist -(Fernando Sor- Fantasies; Thèmes et Menuets)[APE]

  • 状态: 精华资源
  • 摘要:
    古典类型室内乐
    发行时间1998年
  • 时间: 2014/08/29 23:50:22 发布 | 2014/09/02 08:35:34 更新
  • 分类: 音乐  古典音乐 

restretto

精华资源: 56

全部资源: 56

相关: 分享到新浪微博   转播到腾讯微博   分享到开心网   分享到人人   分享到QQ空间   订阅本资源RSS更新   美味书签  subtitle
该内容尚未提供权利证明,无法提供下载。
专辑英文名Fernando Sor- Fantasies; Thèmes et Menuets
艺术家John Holmquist
古典类型室内乐
资源格式APE
发行时间1998年
地区德国
简介

IPB Image


专辑简介



在Naxos《Guitar Collections》系列所策划的“Sor - Guitar Works”录音中,有许多珍贵而罕见的曲目都是每一位吉他爱好者或学生不容错过的,例如本专辑中的作品10和12号,这两首《幻想曲》几乎不曾见诸于任何过去已发行的录音,其价值也就益显贵重。至于作品11号的十二首小步舞曲,曾有乐评家形容这是一打美味的果实,确实是非常贴切的比喻。《小步舞曲》是起源于1650年左右的法国乡村舞曲,之后传入宫廷和贵族,成为18世纪最受观迎的社交音乐。身为古典乐派的吉他巨匠,索尔似乎对小步舞曲也是情有独钟的,他总共写过30首以上的小步舞曲,其中最著名的就是这组作品11号的12首小步舞曲,在这些小步舞曲中,不仅浓缩着索尔的音乐精华,同时这些乐曲的通俗性和音乐性也深受着所有吉他乐迷的喜爱,堪称吉他小品中的保留曲目。



作为当代美国最成功的古典吉他艺术家之一,Holmquist 的足迹遍及世界各个地方。从美国帕萨迪纳到苏格兰的因弗内斯、再到布达佩斯、波多黎各、巴西,不同的文化氛围,一样的欢迎和尊敬。同时,他还为BBC、CBC、美国公共电台等机构录制节目,并已在Pro-Arte、Cavata以及Naxos等唱片公司出版了多张唱片。

Holmquist 曾获得著名的多伦多国际吉他大赛的第一名并作为一个独奏艺术家获得了国家艺术基金会的资助。作为一个吉他教师,他可谓炙手可热。来自美国以及世界各国的顶级大学和音乐学院的大师班邀请从未间断过。他也经常在国际著名吉他大赛的评委席上出现。除此之外,他的学生也屡屡在地区、国家以及国际的吉他大赛上有突出表现。象1999年美国国家弦乐教师协会大赛和英国斯塔福德国际吉他大赛的第一名李佩尔(Daniel Lippel)、1992年美国吉他基金会吉他大赛的第一名维奥克斯(Jason Vieaux)以及1995年波兰国际吉他大赛的优胜者金(Troy King)等等都出自他的门下。

最近,朱利奥·雷冈蒂的十首练习曲曲谱被发现,而Holmquist 就是对这些乐谱的第一个修订者,并将这些作品录制在了Naxos唱片公司的“雷冈蒂作品集 I”中。

目前,他是美国克里弗兰音乐学院吉他教学的负责人,负责教授吉他文化和吉他教育的课程。他的文章和评论在很多学术性的杂志都可以见到。









Exact Audio Copy V1.0 beta 3 from 29. August 2011

EAC 抓取日志文件从26. 八月 2014, 22:35

John Holmquist / Fernando Sor: Fantasies; Thèmes et Menuets

使用驱动器 :PIONEER DVD-RW DVR-218L Adapter: 2 ID: 1

读取模式 : 可靠Secure
使用精确流 : 是
清空音频缓存 : 否
使用 C2 指示器 : 是

组合读写偏移校正: : 0
读取 Lead-In 和 Lead-Out : 否
用静音填充抓取中丢失偏移的采样 : 是
去除首尾静音块 : 否
在CRC 计算中使用了空样本 : 是
已用接口 : Win NT 及 2000 本地 Win32 接口

所用输出模式: : 内部 WAV 函数
样本格式 : 44.100 Hz; 16 Bit; 立体声


已抓取 CD 的 TOC

音轨 | 起始 | 长度 | 起始扇区 | 结束扇区
--------------------------------------------
1 | 0:00.00 | 5:12.32 | 0 | 23431
2 | 5:12.32 | 9:09.20 | 23432 | 64626
3 | 14:21.52 | 9:25.05 | 64627 | 107006
4 | 23:46.57 | 1:58.00 | 107007 | 115856
5 | 25:44.57 | 1:49.48 | 115857 | 124079
6 | 27:34.30 | 3:03.05 | 124080 | 137809
7 | 30:37.35 | 2:46.72 | 137810 | 150331
8 | 33:24.32 | 1:58.58 | 150332 | 159239
9 | 35:23.15 | 2:05.40 | 159240 | 168654
10 | 37:28.55 | 2:08.00 | 168655 | 178254
11 | 39:36.55 | 2:38.02 | 178255 | 190106
12 | 42:14.57 | 2:06.55 | 190107 | 199611
13 | 44:21.37 | 2:53.50 | 199612 | 212636
14 | 47:15.12 | 2:26.70 | 212637 | 223656
15 | 49:42.07 | 1:55.40 | 223657 | 232321
16 | 51:37.47 | 6:09.03 | 232322 | 259999
17 | 57:46.50 | 4:51.35 | 260000 | 281859
18 | 62:38.10 | 11:46.52 | 281860 | 334861


范围状态及错误

已选择范围

文件名 F:\Emuel\John Holmquist - Fernando Sor- Fantasies; Thèmes et Menuets.wav

峰值电平 100.0 %
抓取速度 6.1 X
范围质量 99.9 %
复制 CRC 8F3BBDA4
复制成功

没有错误发生

状态报告结尾



专辑曲目

01. Fantaisie, Op. 10- Andante Largo [0:05:12.32]
02. Fantaisie, Op. 10- Theme and Variations [0:09:09.20]
03. Themes variés (2) and Minuets (12) for guitar, Op. 11- Theme varié [0:09:25.05]
04. Themes variés (2) and Minuets (12) for guitar, Op. 11- Menuet No. 1 [0:01:58.00]
05. Themes variés (2) and Minuets (12) for guitar, Op. 11- Menuet No. 2 [0:01:49.48]
06. Themes variés (2) and Minuets (12) for guitar, Op. 11- Menuet No. 3 [0:03:03.05]
07. Themes variés (2) and Minuets (12) for guitar, Op. 11- Menuet No. 4 [0:02:46.72]
08. Themes variés (2) and Minuets (12) for guitar, Op. 11- Menuet No. 5 [0:01:58.58]
09. Themes variés (2) and Minuets (12) for guitar, Op. 11- Menuet No. 6 [0:02:05.40]
10. Themes variés (2) and Minuets (12) for guitar, Op. 11- Menuet No. 7 [0:02:08.00]
11. Themes variés (2) and Minuets (12) for guitar, Op. 11- Menuet No. 8 [0:02:38.02]
12. Themes variés (2) and Minuets (12) for guitar, Op. 11- Menuet No. 9 [0:02:06.55]
13. Themes variés (2) and Minuets (12) for guitar, Op. 11- Menuet No. 10 [0:02:53.50]
14. Themes variés (2) and Minuets (12) for guitar, Op. 11- Menuet No. 11 [0:02:26.70]
15. Themes variés (2) and Minuets (12) for guitar, Op. 11- Menuet No. 12 [0:01:55.40]
16. Themes variés (2) and Minuets (12) for guitar, Op. 11- Theme Varié [0:06:09.03]
17. Fantaisie, Op. 12- Introduction- Larghetto Cantabile [0:04:51.35]
18. Fantaisie, Op. 12- Théme avec variations [0:11:46.52]

正在读取……

这里是其它用户补充的资源(我也要补充):

暂无补充资源
正在加载,请稍等...

点击查看所有33网友评论

 

(?) [公告]留口水、评论相关规则 | [活动]每日签到 轻松领取电驴经验

    小贴士:
  1. 类似“顶”、“沙发”之类没有营养的文字,对勤劳贡献的楼主来说是令人沮丧的反馈信息。
  2. 提问之前请再仔细看一遍楼主的说明,或许是您遗漏了。
  3. 勿催片。请相信驴友们对分享是富有激情的,如果确有更新版本,您一定能搜索到。
  4. 请勿到处挖坑绊人、招贴广告。既占空间让人厌烦,又没人会搭理,于人于己都无利。
  5. 如果您发现自己的评论不见了,请参考以上4条。