v

您的位置:VeryCD教育艺术体育


《耶鲁大学开放课程:聆听音乐 教材配套练习CD》(Introductory CD for Listening To Music 5E and Listening To Western Music)第5版[压缩包]

  • 状态: 审核中资源
  • 摘要:
    课程类型音乐
    主讲人Craig Wright
    发行日期2002年
    对白语言英语
    文字语言英文
  • 时间: 2014/08/10 17:04:06 发布 | 2014/08/10 17:04:06 更新
  • 分类: 教育   艺术体育  

zhangjieluke

精华资源: 0

全部资源: 1

相关: 分享到新浪微博   转播到腾讯微博   分享到开心网   分享到人人   分享到QQ空间   订阅本资源RSS更新   美味书签  subtitle
该内容尚未提供权利证明,无法提供下载。
中文名耶鲁大学开放课程:聆听音乐 教材配套练习CD
英文名Introductory CD for Listening To Music 5E and Listening To Western Music
资源格式压缩包
课程类型音乐
主讲人Craig Wright
版本第5版
发行日期2002年
地区美国
对白语言英语
文字语言英文
简介

IPB Image
这个CD与《耶鲁大学开放课程:聆听音乐(Open Yale course:Listening to Music)》所用第5版教材相配套,是购买书时书中夹的那种,这个是与书中每个章节一致的练习CD,和另一个资源中的训练CD不同。

本来看英文的电子版完全可以看懂,但一直苦于没有这个练习CD,再加上强迫,刚好又看到中文版的译文在某东上有卖的,就狠下心买了一本。

之前由于级别不够没法上传资源,就在ishare上分享过一次。但最近ishare好像不能用了,就又在这里分享一下。

第一次发资源,希望各位驴友和乐友支持。

另外,由于本人是学生,平时学习非常忙可能做源的时候不多,希望大家一起努力把这个资源顶起来,造福更多的驴友。

本资源仅用于交流,请勿用于商业用途。如果喜欢,请支持正版。各大网站都有正版书籍可以购买。



目录

PERFORMER "Various"
TITLE "Introductory CD for Listening To Music 5E and Listening To Western Music"
FILE "CDImage.ape" WAVE
TRACK 01 AUDIO
TITLE "Symphony No. 5, I (exposition)"
PERFORMER "Ex 1: Beethoven"
INDEX 01 00:00:00
TRACK 02 AUDIO
TITLE "Piano Concerto No. 1, I (opening)"
PERFORMER "Ex 1: Tchaikovsky"
INDEX 01 01:24:31
TRACK 03 AUDIO
TITLE "Thus Spoke Zarathustra (opening sunrise)"
PERFORMER "Ex 1: R Strauss"
INDEX 01 04:47:31
TRACK 04 AUDIO
TITLE "Ex 2: Hearing Meters"
PERFORMER "Ex 2: Hearing Meters"
INDEX 01 06:28:35
TRACK 05 AUDIO
TITLE "Ex 3: Hearing Melodies"
PERFORMER "Ex 3: Hearing Melodies"
INDEX 01 10:50:18
TRACK 06 AUDIO
TITLE "Ex 4: Hearing Major and Minor"
PERFORMER "Ex 4: Hearing Major and Minor"
INDEX 01 14:30:52
TRACK 07 AUDIO
TITLE "Ode to Joy from Symphony No. 9, IV"
PERFORMER "Ex 5: Beethoven"
INDEX 01 18:02:52
TRACK 08 AUDIO
TITLE "Willie the Weeper"
PERFORMER "Ex 6: Armstrong"
INDEX 01 21:26:33
TRACK 09 AUDIO
TITLE "Canon in D major"
PERFORMER "Ex 7: Pachelbel"
INDEX 01 24:43:03
TRACK 10 AUDIO
TITLE "Ex 8: The Listening to Music Blues"
PERFORMER "Ex 8: The Listening to Music Blues"
INDEX 01 29:18:21
TRACK 11 AUDIO
TITLE "Ex 8: Strings"
PERFORMER "Ex 8: Strings"
INDEX 01 30:39:70
TRACK 12 AUDIO
TITLE "Ex 8: Woodwinds"
PERFORMER "Ex 8: Woodwinds"
INDEX 01 34:45:26
TRACK 13 AUDIO
TITLE "Ex 8: Brasses"
PERFORMER "Ex 8: Brasses"
INDEX 01 37:14:39
TRACK 14 AUDIO
TITLE "Ex 8: Percussion"
PERFORMER "Ex 8: Percussion"
INDEX 01 39:38:05
TRACK 15 AUDIO
TITLE "Ex 9: Identifying a Single Instrument"
PERFORMER "Ex 9: Identifying a Single Instrument"
INDEX 01 40:23:48
TRACK 16 AUDIO
TITLE "Ex 10: Identifying Two Instruments"
PERFORMER "Ex 10: Identifying Two Instruments"
INDEX 01 43:41:41
TRACK 17 AUDIO
TITLE "Ex 11: Identifying Three Instruments"
PERFORMER "Ex 11: Identifying Three Instruments"
INDEX 01 47:01:27
TRACK 18 AUDIO
TITLE "Hallelujah chorus from Messiah"
PERFORMER "Ex 11: Handel"
INDEX 01 49:21:08
TRACK 19 AUDIO
TITLE "Ex 12: Hearing Musical Textures"
PERFORMER "Ex 12: Hearing Musical Textures"
INDEX 01 53:02:69
TRACK 20 AUDIO
TITLE "Lullaby"
PERFORMER "Ex 12: Brahms"
INDEX 01 57:03:31
TRACK 21 AUDIO
TITLE "Variations on Twinkle, Twinkle, Little Star"
PERFORMER "Ex 12: Mozart"
INDEX 01 58:56:65
TRACK 22 AUDIO
TITLE "Symphony No. 94, II"
PERFORMER "Ex 12: Haydn"
INDEX 01 62:33:07
TRACK 23 AUDIO
TITLE "Dance of the Reed Pipes from The Nutcracker"
PERFORMER "Ex 12: Tchaikovsky"
INDEX 01 68:50:34
TRACK 24 AUDIO
TITLE "Rondeau from Suite de symphonies"
PERFORMER "Ex 12: Mouret"
INDEX 01 71:21:43
TRACK 25 AUDIO
TITLE "Ex 13: Identifying Musical Forms"
PERFORMER "Ex 13: Identifying Musical Forms"
INDEX 01 73:16:51

正在读取……

这里是其它用户补充的资源(我也要补充):

暂无补充资源
正在加载,请稍等...

点击查看所有7网友评论

 

(?) [公告]留口水、评论相关规则 | [活动]每日签到 轻松领取电驴经验

    小贴士:
  1. 类似“顶”、“沙发”之类没有营养的文字,对勤劳贡献的楼主来说是令人沮丧的反馈信息。
  2. 提问之前请再仔细看一遍楼主的说明,或许是您遗漏了。
  3. 勿催片。请相信驴友们对分享是富有激情的,如果确有更新版本,您一定能搜索到。
  4. 请勿到处挖坑绊人、招贴广告。既占空间让人厌烦,又没人会搭理,于人于己都无利。
  5. 如果您发现自己的评论不见了,请参考以上4条。