v

您的位置:VeryCD音乐演唱会

音乐资源事务区


Moonbeam -《The Secret (Live Edition)》[DVDRip]

  • 状态: 精华资源
  • 摘要:
    发行时间2012年07月17日
    语言英语,俄语
  • 时间: 2014/05/25 21:36:23 发布 | 2014/05/26 11:28:40 更新
  • 分类: 音乐  演唱会 

zhang11veron

精华资源: 69

全部资源: 69

相关: 分享到新浪微博   转播到腾讯微博   分享到开心网   分享到人人   分享到QQ空间   订阅本资源RSS更新   美味书签  subtitle
该内容尚未提供权利证明,无法提供下载。
专辑中文名The Secret (Live Edition)
歌手Moonbeam
资源格式DVDRip
发行时间2012年07月17日
地区俄罗斯
语言英语,俄语
简介

IPB Image
发行公司:Open Gate Recordings
音乐类型:Trance

专辑介绍:

Moonbeam这个于2003成立的俄罗斯电音组合.他们的音乐风格贯穿DEEP HOUSE,TECH HOUSE,PROGRESSIVE TRANCE/HOUSE.在他们的音乐中你会感受到Moonbeam的音乐略带点神秘感觉,音色表现深粹而多变,内敛的激情中富含浪漫.如今他们已经拥有了自己的厂牌 Moonbeam Music和Moonbeam Digital,在DI.FM等电台也有自己节目.

这是一张现场专辑,曲目取自他们11年的专辑The Secret以及10年的专辑Around The World,喜欢Moonbeam风格的朋友不可错过的现场。

电音迷论坛转载,原帖点此,感谢原发布者电音迷

资源均来自网络,仅作试听之用,请在下载完24小时内删除,如果你喜欢,请购买正版,谢谢。

视频信息:

引用

Format : AVI
Format/Info : Audio Video Interleave
File size : 1.46 GiB
Duration : 1h 13mn
Overall bit rate : 2 842 Kbps
Writing application : VirtualDubMod 1.5.4.1 (build 2178/release)
Writing library : VirtualDubMod build 2178/release
Video #0
ID : 0
Format : MPEG-4 Visual
Format profile : Advanced Simple@L5
Format settings, BVOP : 1
Format settings, QPel : No
Format settings, GMC : No warppoints
Format settings, Matrix : Custom
Codec ID : XVID
Codec ID/Hint : XviD
Duration : 1h 13mn
Bit rate : 2 643 Kbps
Width : 720 pixels
Height : 352 pixels
Display aspect ratio : 2.045
Frame rate : 25.000 fps
Color space : YUV
Chroma subsampling : 4:2:0
Bit depth : 8 bits
Scan type : Progressive
Compression mode : Lossy
Bits/(Pixel*Frame) : 0.417
Stream size : 1.36 GiB (93%)
Writing library : XviD 64
Audio #1
ID : 1
Format : MPEG Audio
Format version : Version 1
Format profile : Layer 3
Mode : Joint stereo
Codec ID : 55
Codec ID/Hint : MP3
Duration : 1h 13mn
Bit rate mode : Constant
Bit rate : 192 Kbps
Channel count : 2 channels
Sampling rate : 48.0 KHz
Compression mode : Lossy
Stream size : 101 MiB (7%)
Alignment : Aligned on interleaves
Interleave, duration : 80 ms (2.00 video frames)
Interleave, preload duration : 504 ms
Writing library : LAME3.98r
Encoding settings : -m j -V 4 -q 2 -lowpass 18.6 -b 192

百度云分享地址点此
如果没源了可以发邮件到zhang11veron@qq.com



专辑曲目

01.Intro The Secret
02.Hills Folded In Mist (with Avis Vox)
03.Ghost
04.Wanderer (with Matvey Emerson)
05.In Your Eyes (with Blackfeel Wite)
06.Through A Fog
07.Daydream (with Leusin)
08.Storm Of Clouds (with Avis Vox)
09.Disappearance (with Avis Vox)
10.Song For A Girl (with Blackfeel Wite)
11.Secret
12.First Night (with Blackfeel Wite)
13.The Lilt (with Avis Vox)
14.7 Seconds (with Avis Vox)

正在读取……

这里是其它用户补充的资源(我也要补充):

暂无补充资源
正在加载,请稍等...

点击查看所有59网友评论

 

(?) [公告]留口水、评论相关规则 | [活动]每日签到 轻松领取电驴经验

    小贴士:
  1. 类似“顶”、“沙发”之类没有营养的文字,对勤劳贡献的楼主来说是令人沮丧的反馈信息。
  2. 提问之前请再仔细看一遍楼主的说明,或许是您遗漏了。
  3. 勿催片。请相信驴友们对分享是富有激情的,如果确有更新版本,您一定能搜索到。
  4. 请勿到处挖坑绊人、招贴广告。既占空间让人厌烦,又没人会搭理,于人于己都无利。
  5. 如果您发现自己的评论不见了,请参考以上4条。