v

您的位置:VeryCD音乐古典音乐

音乐资源事务区


阿尔帕德·尤 Arpad Joó & 阿姆斯特丹爱乐乐团 Amsterdam Philharmonic Orchestra -《德沃夏克第九交响曲“自新大陆”》(DVORAK SYMPHONY No.9 FROM THE NEW WORLD)ARTS[FLAC]

  • 状态: 精华资源
  • 摘要:
    古典类型交响曲
    发行时间1986年
  • 时间: 2014/03/07 09:22:58 发布 | 2014/03/13 06:57:09 更新
  • 分类: 音乐  古典音乐 

kalasnikf

精华资源: 359

全部资源: 362

相关: 分享到新浪微博   转播到腾讯微博   分享到开心网   分享到人人   分享到QQ空间   订阅本资源RSS更新   美味书签  subtitle
该内容尚未提供权利证明,无法提供下载。
专辑英文名DVORAK SYMPHONY No.9 FROM THE NEW WORLD
专辑中文名德沃夏克第九交响曲“自新大陆”
古典类型交响曲
资源格式FLAC
版本ARTS
发行时间1986年
地区德国
语言英语
简介

IPB Image

专辑介绍

阿尔帕德·尤 Arpad Joó(1948-)匈牙利钢琴家、指挥家。16岁时进入李斯特音乐学院学习,曾师从斯特拉文斯基、哈恰图良、卡萨尔斯、奥尔夫、梅纽因和肖斯塔科维奇。20岁就读于美国茱莉亚音乐学院,并在波士顿举行的李斯特钢琴大赛中取得第一名。后逐渐转向指挥领域,擅长匈牙利作曲家的作品。

阿姆斯特丹爱乐乐团

阿姆斯特丹的老牌乐团,1985起与乌德勒支爱乐乐团、阿姆斯特丹室内乐团合并组成了荷兰爱乐乐团。

因编码错误,请大家自己重新做一下cue(或者把包里的cue从unicode 编码另存为ANSI编码也可以)

代码
REM GENRE Classical
REM DATE 1995
REM COMMENT  ID3G: 32
PERFORMER "Arpad Joo/Amsterdam Philharmonic"
TITLE "Anton Dvorak Symphony No. 9 'From the New World'"
FILE "CDImage.flac" WAVE
  TRACK 01 AUDIO
    TITLE "Adagio-allegro motto"
    INDEX 01 00:00:00
  TRACK 02 AUDIO
    TITLE "Largo"
    INDEX 01 09:52:50
  TRACK 03 AUDIO
    TITLE "Scherzo-molto vivace"
    INDEX 01 23:14:50
  TRACK 04 AUDIO
    TITLE "Allegro con fuoco"
    INDEX 01 31:07:50



专辑曲目

01.Adagio-allegro motto
02.Largo
03.Scherzo-molto vivace
04.Allegro con fuoco

正在读取……

这里是其它用户补充的资源(我也要补充):

暂无补充资源
正在加载,请稍等...

点击查看所有79网友评论

 

(?) [公告]留口水、评论相关规则 | [活动]每日签到 轻松领取电驴经验

    小贴士:
  1. 类似“顶”、“沙发”之类没有营养的文字,对勤劳贡献的楼主来说是令人沮丧的反馈信息。
  2. 提问之前请再仔细看一遍楼主的说明,或许是您遗漏了。
  3. 勿催片。请相信驴友们对分享是富有激情的,如果确有更新版本,您一定能搜索到。
  4. 请勿到处挖坑绊人、招贴广告。既占空间让人厌烦,又没人会搭理,于人于己都无利。
  5. 如果您发现自己的评论不见了,请参考以上4条。