v

您的位置:VeryCD音乐新世纪音乐

音乐资源事务区


AOMUSIC -《热烈的爱》( ...And Love Rages On! )[FLAC]

  • 状态: 精华资源
  • 摘要:
    发行时间2011年12月20日
  • 时间: 2014/03/06 00:37:09 发布 | 2014/03/06 10:27:16 更新
  • 分类: 音乐  新世纪音乐 

苍穹之声

精华资源: 42

全部资源: 43

相关: 分享到新浪微博   转播到腾讯微博   分享到开心网   分享到人人   分享到QQ空间   订阅本资源RSS更新   美味书签  subtitle
该内容尚未提供权利证明,无法提供下载。
专辑英文名 ...And Love Rages On!
专辑中文名热烈的爱
艺术家AOMUSIC
资源格式FLAC
发行时间2011年12月20日
地区美国
语言英语
简介

IPB Image
专辑编号:AOM0907
资源出处:苍穹之声原抓

专辑介绍:
  致力于展现不同文明魅力的 AOMUSIC 是一个新兴的音乐项目,主理该项目的主要艺术家有知名的 Richard Gannaway、Jay Oliver、Miriam Stockley、Sandeep Chowta 等,他们集作曲、编曲、制作于一身,创造最美妙的世界音乐。

  新作《...And Love Rages On! 》依然是非常和谐美丽的一部作品,这样优秀的新纪元音乐当然是不容错过的。特别值得一提的是,其中第八首曲目出自中国民歌,第九首是纯音曲目。


介绍转自网络

在此感谢 影子.ape 提供原碟,老溃结 供源

http://www.tudou.com/programs/view/6GyRja3...06_02_99



豆单试听
http://www.tudou.com/plcover/l0rQ-bVb6sQ/

  本资源仅供个人音像制作的学习、交流之用。版权归原音像公司所有,请自觉于下载后24小时内删除。请勿用于商业目的,否则责任自负!如果喜欢本唱片,请购买正版!

  All our music resources are for trial only. Please delete the downloaded file within 24 hours by yourself. All property of the songs belong to singers or their company! Please buy the CD of them and support them. Downloading the file means you consent to all said above. If you don't accept the announcement, please don't download and delete the music file at once.


CDDA检测
IPB Image

第一轨光谱
IPB Image

第二轨光谱
IPB Image

第七轨光谱
IPB Image

ISRC Info
IPB Image

第一轨频率
IPB Image

第二轨频率
IPB Image

CUE代码

代码
REM GENRE New age
REM DISCID 630B0709
REM COMMENT ExactAudioCopy v1.0b3
PERFORMER "AOMUSIC"
TITLE "...And Love Rages On! "
FILE "AOMUSIC.-.[...And.Love.Rages.On!].专辑.(FLAC).flac" WAVE
  TRACK 01 AUDIO
    TITLE "Gaiya Lo Mane"
    FLAGS DCP
    INDEX 01 00:00:00
  TRACK 02 AUDIO
    TITLE "In Lake'ch(I am another you)"
    FLAGS DCP
    INDEX 01 05:51:66
  TRACK 03 AUDIO
    TITLE "Shen Deni"
    FLAGS DCP
    INDEX 01 11:49:56
  TRACK 04 AUDIO
    TITLE "Ena Na Lena"
    FLAGS DCP
    INDEX 01 17:49:30
  TRACK 05 AUDIO
    TITLE "Sheyu"
    FLAGS DCP
    INDEX 01 23:21:17
  TRACK 06 AUDIO
    TITLE "Kumale Saleyo"
    FLAGS DCP
    INDEX 01 28:11:16
  TRACK 07 AUDIO
    TITLE "Tio Da Ye"
    FLAGS DCP
    INDEX 01 32:29:63
  TRACK 08 AUDIO
    TITLE "One Kaleo"
    FLAGS DCP
    INDEX 01 37:22:56
  TRACK 09 AUDIO
    TITLE "Ubuntu "
    FLAGS DCP
    INDEX 01 42:38:67

抓轨日志
代码
Exact Audio Copy V1.0 beta 3 from 29. August 2011

EAC 抓取日志文件从5. 三月 2014, 22:38

未知艺术家 / 未知标题

使用驱动器  :HL-DT-STDVDRW  GS31N   Adapter: 1  ID: 0

读取模式      : 可靠Secure
使用精确流     : 是
清空音频缓存    : 否
使用 C2 指示器 : 是

读取偏移校正:               : 667
读取 Lead-In 和 Lead-Out : 否
用静音填充抓取中丢失偏移的采样       : 是
去除首尾静音块               : 否
在CRC 计算中使用了空样本       : 是
已用接口                  : Win NT 及 2000 本地 Win32 接口

所用输出模式: : 内部 WAV 函数
样本格式    : 44.100 Hz; 16 Bit; 立体声


已抓取 CD 的 TOC

     音轨 |    起始    |    长度    |  起始扇区  |  结束扇区  
    --------------------------------------------
      1 |  0:00.00 |  5:51.66 |      0 |  26390
      2 |  5:51.66 |  5:57.65 |  26391 |  53230
      3 | 11:49.56 |  5:59.49 |  53231 |  80204
      4 | 17:49.30 |  5:31.62 |  80205 | 105091
      5 | 23:21.17 |  4:49.74 | 105092 | 126840
      6 | 28:11.16 |  4:18.47 | 126841 | 146237
      7 | 32:29.63 |  4:52.68 | 146238 | 168205
      8 | 37:22.56 |  5:16.11 | 168206 | 191916
      9 | 42:38.67 |  4:24.51 | 191917 | 211767


范围状态及错误

已选择范围

     文件名 C:\Users\Administrator\Desktop\111.wav

     峰值电平 99.9 %
     抓取速度 7.7 X
     范围质量 100.0 %
     复制 CRC D643C18A
     复制成功

没有错误发生


AccurateRip 摘要

音轨  1  精确地校准抓取  2)  [0022B442]  (AR v2)
音轨  2  精确地校准抓取  2)  [28B3C784]  (AR v2)
音轨  3  精确地校准抓取  2)  [FFE9B473]  (AR v2)
音轨  4  精确地校准抓取  2)  [5C8ADF72]  (AR v2)
音轨  5  精确地校准抓取  2)  [919428D6]  (AR v2)
音轨  6  精确地校准抓取  2)  [0F1E8ABB]  (AR v2)
音轨  7  精确地校准抓取  2)  [9074AE9E]  (AR v2)
音轨  8  精确地校准抓取  2)  [BFCDF3C0]  (AR v2)
音轨  9  精确地校准抓取  2)  [013618D2]  (AR v2)

所有音轨精确校准抓取

状态报告结尾



专辑曲目

01. Gaiya Lo Mane 5:52
02. In Lake'ch(I am another you) 5:58
03. Shen Deni 5:14
04. Ena Na Lena 6:44
05. Sheyu 4:50
06. Kumale Saleyo 4:19
07. Tio Da Ye 4:53
08. One Kaleo 5:16
09. Ubuntu 4:25

正在读取……

这里是其它用户补充的资源(我也要补充):

暂无补充资源
正在加载,请稍等...

点击查看所有101网友评论

 

(?) [公告]留口水、评论相关规则 | [活动]每日签到 轻松领取电驴经验

    小贴士:
  1. 类似“顶”、“沙发”之类没有营养的文字,对勤劳贡献的楼主来说是令人沮丧的反馈信息。
  2. 提问之前请再仔细看一遍楼主的说明,或许是您遗漏了。
  3. 勿催片。请相信驴友们对分享是富有激情的,如果确有更新版本,您一定能搜索到。
  4. 请勿到处挖坑绊人、招贴广告。既占空间让人厌烦,又没人会搭理,于人于己都无利。
  5. 如果您发现自己的评论不见了,请参考以上4条。