v

您的位置:VeryCD综艺新闻综合

综艺资源事务区


《梁山伯与祝英台》[越剧][2008明星版][剧场版全剧][Apollo](更新完毕)[TVRip]

  • 状态: 精华资源
  • 摘要:
    发行时间2008年06月
  • 时间: 2008/06/30 14:49:44 发布 | 2008/06/30 20:42:00 更新
  • 分类: 综艺  新闻综合 

楚云

精华资源: 8

全部资源: 8

相关: 分享到新浪微博   转播到腾讯微博   分享到开心网   分享到人人   分享到QQ空间   订阅本资源RSS更新   美味书签  subtitle
该内容尚未提供权利证明,无法提供下载。
中文名梁山伯与祝英台
别名2008明星版梁祝,2008拼盘版梁祝
资源格式TVRip
版本[越剧][2008明星版][剧场版全剧][Apollo](更新完毕)
发行时间2008年06月
简介

中文名称:
剧种: 越剧
制作组: Apollo

IPB Image

2008.06.08 绍兴大剧院演出版,2008.06.28 CCTV-11 频道空中剧院播出。附加 2008.06.27 戏曲采风明星版《梁山伯与祝英台》北部行专访。

演出阵容
第一场 草桥结拜
吴凤花(范派) .... 梁山伯
陈辉玲(吕派) .... 祝英台

第二场 同窗共读
王君安(尹派) .... 梁山伯
李敏(王派) .... 祝英台

第三场 十八相送
王君安(尹派) .... 梁山伯
李敏(王派) .... 祝英台

第四场 思祝下山
陈娜君(徐派) .... 梁山伯

第五场 回十八
吴凤花(范派) .... 梁山伯

第六场 劝婚访祝
章瑞虹(范派) .... 梁山伯
陈飞(傅派) .... 祝英台

第七场 楼台会
章瑞虹(范派) .... 梁山伯
陈飞(傅派) .... 祝英台

第八场 山伯临终
赵志刚(尹派) .... 梁山伯

第九场 逼嫁抗婚
谢群英(金派) .... 祝英台

第十场 祷墓哭兄
陶琪(袁派) .... 祝英台

尾声 化蝶
吴凤花(范派) .... 梁山伯
陈飞(傅派) .... 祝英台
王君安(尹派) .... 梁山伯
李敏(王派) .... 祝英台
陈娜君(徐派) .... 梁山伯
陈辉玲(吕派) .... 祝英台

其他演员
孙伟娟 .... 祝公远
潘琴 .... 师母
屠少华 .... 四九
谢小 .... 银心

剧情介绍:
祝英台女扮男装往杭城求学,路遇梁山伯结为兄弟,同窗三载,情谊深厚。祝父催女归家,英台行前向师母吐露真情,托媒许婚山伯,又在送别时,假托为妹作媒,嘱山伯早去迎娶。山伯赶往祝家,不料祝父已将英台许婚马太守之子马文才,两人在楼台相叙,见姻缘无望,不胜悲愤。山伯归家病故,英台闻耗,誓以身殉,马家迎娶之日,英台花轿绕道至山伯坟前祭奠,霎时风雷大作,坟墓爆裂,英台纵身跃入,梁山伯与祝英台化作蝴蝶,双双飞舞。

原始截图:
IPB Image

IPB Image

IPB Image

IPB Image

代码

General #0
Complete name                    : 梁山伯与祝英台.上集[越剧][2008明星版][剧场版全剧][TVRip-MP4][Apollo].mp4
Format                           : MPEG-4
File size                        : 424 MiB
PlayTime                         : 1h 16mn
Bit rate                         : 772 Kbps

Video #0
Format/Info                      : Advanced Video Codec
Format profile                   : Main@L3.0
Format settings, CABAC           : Yes
Bit rate mode                    : VBR
Bit rate                         : 704 Kbps
Maximum bit rate                 : 1552 Kbps
Width                            : 640 pixels
Height                           : 480 pixels
Display aspect ratio             : 4/3
Frame rate mode                  : Constant
Frame rate                       : 25.000 fps
Stream size                      : 387 MiB

Audio #0
Format/Info                      : Advanced Audio Codec
Bit rate mode                    : VBR
Bit rate                         : 63.9 Kbps
Maximum bit rate                 : 81.5 Kbps
Channel(s)                       : 1 channel
Sampling rate                    : 44.1 KHz
Resolution                       : 16 bits
Stream size                      : 35.1 MiB

电视卡采集,DVD 格式录制,X264+AAC,MP4封装。

家里 ADSL 24 小时开机。请戏曲同好下载后尽量不要移出 eMule 共享目录,帮助分享中国传统艺术,万分感谢!

正在读取……

这里是其它用户补充的资源(我也要补充):

暂无补充资源
正在加载,请稍等...

点击查看所有63网友评论

 

(?) [公告]留口水、评论相关规则 | [活动]每日签到 轻松领取电驴经验

    小贴士:
  1. 类似“顶”、“沙发”之类没有营养的文字,对勤劳贡献的楼主来说是令人沮丧的反馈信息。
  2. 提问之前请再仔细看一遍楼主的说明,或许是您遗漏了。
  3. 勿催片。请相信驴友们对分享是富有激情的,如果确有更新版本,您一定能搜索到。
  4. 请勿到处挖坑绊人、招贴广告。既占空间让人厌烦,又没人会搭理,于人于己都无利。
  5. 如果您发现自己的评论不见了,请参考以上4条。