v

您的位置:VeryCD音乐华语音乐

音乐资源事务区


李克勤 -《红日》[APE]

  • 状态: 精华资源
  • 摘要:
    音乐风格流行
    发行时间1992年
    地区香港
    语言粤语
  • 时间: 2013/11/12 17:29:20 发布 | 2013/11/13 21:12:51 更新
  • 分类: 音乐  华语音乐 

晔月烈

精华资源: 20

全部资源: 20

相关: 分享到新浪微博   转播到腾讯微博   分享到开心网   分享到人人   分享到QQ空间   订阅本资源RSS更新   美味书签  subtitle
该内容尚未提供权利证明,无法提供下载。
专辑中文名红日
歌手李克勤
音乐风格流行
资源格式APE
发行时间1992年
地区香港
语言粤语
简介

IPB Image

专辑简介:

很久很久以前在电骡上下载的资源。可能是时间久,被删除了。之前在发李斯特钢琴全集的时候说过,希望好的资源能够永存电驴。特此补上。

虽然不会说粤语,但是我真的很喜欢这张专辑。我是个bug天赋极高的人,所以挫折家常便饭,各种电脑对我极其不友好。感谢<红日>这首歌给我带来的无数次鼓励。

《红日》为李克勤效力于宝丽金唱片公司时期的最后一张大碟,大碟推出时间为1992年夏季。之后他便转投至星光唱片。

本大碟内收录了11首歌曲,当中包括至今仍视为“励志歌”经典之作“红日”。

另外,与周慧敏合唱的“万千宠爱在一身”中场一段独白最后一句“点解啲女人成日都咁多嘢问”,及翻唱由谭炳文原唱的旧欢如梦,李克勤所跳的舞步,都为当时佳话。

CUE:
PERFORMER "李克勤"
TITLE "红日"
REM DATE 1992
REM DISCID 870B060B
REM COMMENT "ExactAudioCopy v0.99pb4"
FILE "李克勤 - 红日.ape" WAVE
TRACK 01 AUDIO
TITLE "龙影侠(电视剧'龙影侠'主题曲)"
PERFORMER "李克勤"
INDEX 01 00:00:00
TRACK 02 AUDIO
TITLE "无声慰问(电视剧'龙影侠'插曲)"
PERFORMER "李克勤"
INDEX 00 04:43:00
INDEX 01 04:45:00
TRACK 03 AUDIO
TITLE "万千宠爱在一身(李克勤/周慧敏)"
PERFORMER "李克勤"
INDEX 00 07:49:26
INDEX 01 07:50:25
TRACK 04 AUDIO
TITLE "红日(电视剧'他来自天堂'主题曲)"
PERFORMER "李克勤"
INDEX 00 11:58:25
INDEX 01 12:00:25
TRACK 05 AUDIO
TITLE "情难再 WITH A MELANCHOLIC MOOD"
PERFORMER "李克勤"
INDEX 00 16:45:25
INDEX 01 16:45:50
TRACK 06 AUDIO
TITLE "黄昏重逢"
PERFORMER "李克勤"
INDEX 00 20:38:01
INDEX 01 20:39:00
TRACK 07 AUDIO
TITLE "你是我的太阳(电视剧'他来自天堂'插曲)"
PERFORMER "李克勤"
INDEX 00 27:06:37
INDEX 01 27:09:37
TRACK 08 AUDIO
TITLE "逼到惯"
PERFORMER "李克勤"
INDEX 00 31:38:26
INDEX 01 31:41:25
TRACK 09 AUDIO
TITLE "投奔爱海"
PERFORMER "李克勤"
INDEX 00 35:36:50
INDEX 01 35:37:50
TRACK 10 AUDIO
TITLE "逆流"
PERFORMER "李克勤"
INDEX 00 39:41:51
INDEX 01 39:44:50
TRACK 11 AUDIO
TITLE "旧欢入梦"
PERFORMER "李克勤"
INDEX 00 44:20:00
INDEX 01 44:22:00



专辑曲目

1.龙影侠
2.无声慰问
3.万千宠爱在一身
4.红日
5.情难再
6.黄昏重逢
7.妳是我的太阳
8.逼到惯
9.投奔爱海
10.逆流
11.旧欢如梦

正在读取……

这里是其它用户补充的资源(我也要补充):

暂无补充资源
正在加载,请稍等...

点击查看所有128网友评论

 

(?) [公告]留口水、评论相关规则 | [活动]每日签到 轻松领取电驴经验

    小贴士:
  1. 类似“顶”、“沙发”之类没有营养的文字,对勤劳贡献的楼主来说是令人沮丧的反馈信息。
  2. 提问之前请再仔细看一遍楼主的说明,或许是您遗漏了。
  3. 勿催片。请相信驴友们对分享是富有激情的,如果确有更新版本,您一定能搜索到。
  4. 请勿到处挖坑绊人、招贴广告。既占空间让人厌烦,又没人会搭理,于人于己都无利。
  5. 如果您发现自己的评论不见了,请参考以上4条。