v

您的位置:VeryCD动漫剧场动画

动漫资源事务区


《名侦探柯南:绝海的侦探》(Detective Conan:Private Eye in The Distant Sea )[幻樱字幕组][简体][DVDRip]

  • 状态: 精华资源
  • 摘要:
    发行时间2013年4月20日
    语言日语
  • 时间: 2013/10/18 06:57:06 发布 | 2013/10/18 07:59:50 更新
  • 分类: 动漫  剧场动画 

幻樱字幕组

精华资源: 97

全部资源: 100

相关: 分享到新浪微博   转播到腾讯微博   分享到开心网   分享到人人   分享到QQ空间   订阅本资源RSS更新   美味书签  subtitle
该内容尚未提供权利证明,无法提供下载。
中文名名侦探柯南:绝海的侦探
英文名Detective Conan:Private Eye in The Distant Sea
别名名侦探柯南剧场版17,名探侦コナン 绝海の探侦,名侦探柯南:2013年剧场版
资源格式DVDRip
版本[幻樱字幕组][简体]
发行时间2013年4月20日
导演静野孔文
地区日本
语言日语
简介

IPB Image

【发行时间】2013年4月20日
【字幕制作】简体内嵌


【STORY】

朝霞映照的海面上,漂浮着一艘装满炸弾的谜一般的船只。该船就是一切的开始。又是炸弹,地点是京都·舞鹤港冲。 海上自卫队举办了难得的宙斯盾驱逐舰体验航海。电子武装的高科技舰船展开的惊心动魄的航海。柯南和兰、小五郎、探侦団正在享受时,然而,突然之间,响起巨大的声响,舰内回荡起骚动的气氛。不久,发现了失去左臂的遗体!而且是自卫队员的遗体! 遗体旁边留下了几个可疑之处。参与捜査的柯南、知道舰内潜入了某国的间谍X。究竟间谍X是何人?和迷船又是什么关系?不久,间谍的身影开始接近柯南他们。这次航海隐藏着巨大的阴谋,远远超出了想像、将影响整个日本!

【STAFF】

原作:青山刚昌
导演、分镜:静野孔文
监修:山本泰一郎
剧本:樱井武晴
企划:诹访道彦
音乐:大野克夫
分镜协助:寺冈严、平野俊贵、西森章
演出:静野孔文、永冈智佳、古田丈司、伊藤真朱
人物设定 / 总作画监督:须藤昌朋
作品设计:本桥秀之
作画监督:清水义治、牟田清司、野武洋行、かわむらあきお、八崎健二、石川晋吾、大岛美和
作画监督补:桥本正则、岩井伸之
效果作画监督:寺冈严、堀内博之
美术:涉谷幸弘
色彩设计:加藤里惠
摄影监督:西山仁
3D CGI 制片人:后藤优一
编集:冈田辉满
录音监督:浦上靖夫、浦上庆子
故事编辑:饭冈顺一
制作人:诹访道彦、浅井认、石山桂一
副制作人:米仓功人
动画制作:TMS/V1 Studio
制作:《名侦探柯南》制作委员会(小学馆、读卖电视台、日本电视台、ShoPro、东宝、TMS Entertainment)
协助:日本防卫省、海上自卫队

【CAST】

江户川柯南:高山南
毛利兰: 山崎和佳奈
毛利小五郎: 小山力也
工藤新一: 山口胜平
服部平次: 堀川亮
远山和叶: 宫村优子
阿笠博士: 绪方贤一
灰原哀: 林原惠美
吉田步美: 岩居由希子
小岛元太: 高木涉
圆谷光彦: 大谷育江
铃木园子: 松井菜樱子
目暮十三: 茶风林
佐藤美和子: 汤屋敦子
高木涉: 高木涉
服部平藏: 小山武宏
远山银司郎: 小川真司
大泷悟郎: 若本规夫
绫小路文麿: 置鲇龙太郎
立石由记夫: 广田行生
藤井七海: 柴咲幸
井上文中: 幸野善之
笹浦洋介: 水内清光
关口诚: 成田剑
仓田正明: 松风雅也
雨宫勇气: 三田友子
雨宫勇气的父亲: 黑田崇矢
车折警官: 泽木郁也
竹川: 宗矢树赖
副舰长: 梅津秀行
佐久间重吾: 麻生敬太郎
野津原将: 三户耕三

代码
   K:\[名侦探柯南_剧场版17_ 绝海的侦探].[HYSUB]Detective Conan_M17_Private Eye[GB_MP4][856x480].mp4
  General
    Complete name : K:\[名侦探柯南_剧场版17_ 绝海的侦探].[HYSUB]Detective Conan_M17_Private Eye[GB_MP4][856x480].mp4
    Format : MPEG-4
    Format profile : Base Media
    Codec ID : isom
    File size : 841 MiB
    Duration : 1h 50mn
    Overall bit rate mode : Variable
    Overall bit rate : 1 063 Kbps
    Encoded date : UTC 2013-10-17 10:14:29
    Tagged date : UTC 2013-10-17 10:14:29
  Video #1
    ID : 1
    Format : AVC
    Format/Info : Advanced Video Codec
    Format profile : High@L4.1
    Format settings, CABAC : Yes
    Format settings, ReFrames : 5 frames
    Codec ID : avc1
    Codec ID/Info : Advanced Video Coding
    Duration : 1h 50mn
    Bit rate : 931 Kbps
    Maximum bit rate : 8 910 Kbps
    Width : 856 pixels
    Height : 480 pixels
    Display aspect ratio : 16:9
    Frame rate mode : Constant
    Frame rate : 23.976 fps
    Color space : YUV
    Chroma subsampling : 4:2:0
    Bit depth : 8 bits
    Scan type : Progressive
    Bits/(Pixel*Frame) : 0.095
    Stream size : 737 MiB (88%)
    Title : 264#trackID=1:fps=23.976@GPAC0.5.1-DEV-rev4283
    Writing library : x264 core 133 r2334 a3ac64b
    Encoding settings : cabac=1 / ref=5 / deblock=1:0:0 / analyse=0x3:0x113 / me=umh / subme=7 / psy=1 / psy_rd=1.00:0.00 / mixed_ref=1 / me_range=20 / chroma_me=1 / trellis=1 / 8x8dct=1 / cqm=0 / deadzone=21,11 / fast_pskip=1 / chroma_qp_offset=-2 / threads=12 / lookahead_threads=3 / sliced_threads=0 / nr=0 / decimate=1 / interlaced=0 / bluray_compat=0 / constrained_intra=0 / bframes=7 / b_pyramid=2 / b_adapt=2 / b_bias=0 / direct=1 / weightb=1 / open_gop=0 / weightp=2 / keyint=345 / keyint_min=23 / scenecut=50 / intra_refresh=0 / rc_lookahead=50 / rc=crf / mbtree=1 / crf=18.0 / qcomp=0.50 / qpmin=0 / qpmax=69 / qpstep=5 / ip_ratio=1.40 / aq=1:0.70
    Encoded date : UTC 2013-10-17 10:14:29
    Tagged date : UTC 2013-10-17 10:14:56
  Audio #2
    ID : 2
    Format : AAC
    Format/Info : Advanced Audio Codec
    Format profile : LC
    Codec ID : 40
    Duration : 1h 50mn
    Bit rate mode : Variable
    Bit rate : 128 Kbps
    Maximum bit rate : 175 Kbps
    Channel count : 2 channels
    Channel positions : Front: L R
    Sampling rate : 44.1 KHz
    Compression mode : Lossy
    Stream size : 101 MiB (12%)
    Encoded date : UTC 2013-10-17 09:36:29
    Tagged date : UTC 2013-10-17 10:14:56

IPB Image
IPB Image

正在读取……

这里是其它用户补充的资源(我也要补充):

暂无补充资源
正在加载,请稍等...

点击查看所有39网友评论

 

(?) [公告]留口水、评论相关规则 | [活动]每日签到 轻松领取电驴经验

    小贴士:
  1. 类似“顶”、“沙发”之类没有营养的文字,对勤劳贡献的楼主来说是令人沮丧的反馈信息。
  2. 提问之前请再仔细看一遍楼主的说明,或许是您遗漏了。
  3. 勿催片。请相信驴友们对分享是富有激情的,如果确有更新版本,您一定能搜索到。
  4. 请勿到处挖坑绊人、招贴广告。既占空间让人厌烦,又没人会搭理,于人于己都无利。
  5. 如果您发现自己的评论不见了,请参考以上4条。