v

您的位置:VeryCD音乐古典音乐

音乐资源事务区


Schubert 舒伯特 -《即兴曲,音乐瞬间》(The Complete Impromptus; Moments Musicaux)Brendel[FLAC]

  • 状态: 精华资源
  • 摘要:
    古典类型奏鸣曲
    发行时间1997年
  • 时间: 2013/09/07 14:57:14 发布 | 2013/09/11 16:41:23 更新
  • 分类: 音乐  古典音乐 

tefantasy

精华资源: 5

全部资源: 5

相关: 分享到新浪微博   转播到腾讯微博   分享到开心网   分享到人人   分享到QQ空间   订阅本资源RSS更新   美味书签  subtitle
该内容尚未提供权利证明,无法提供下载。
专辑英文名The Complete Impromptus; Moments Musicaux
专辑中文名即兴曲,音乐瞬间
艺术家Schubert 舒伯特
古典类型奏鸣曲
资源格式FLAC
版本Brendel
发行时间1997年
地区德国
简介

IPB Image
唱片编号:456 061-2
演奏者:Alfred Brendel
来源:自抓

专辑介绍:

舒伯特的”即兴曲“和"音乐瞬间”都是为钢琴写的抒情性短曲,5~10分钟,即兴成分很强,曲式简单,大都是三段体或变奏曲,不采用较为复杂的奏鸣曲式。正因其旋律抒情、结构简单,也不企图表达什么复杂的内容,不费心思,人人都能接受。

弗朗茨·泽拉菲库斯·彼得·舒伯特,奥地利作曲家,他是早期浪漫主义音乐的代表人物,也被认为是古典主义音乐的最后一位巨匠。舒伯特在短短31年的生命中,创作了600多首歌曲 ,18部歌剧、歌唱剧和配剧音乐,10部交响曲,19首弦乐四重奏,22首钢琴奏鸣曲 ,4首小提琴奏鸣曲以及许多其他作品,被称为“歌曲之王”。

布伦德尔(1931—)被公认为二十世纪最伟大的古典钢琴家之一,他曲目广泛,学识渊博,由他演奏的莫扎特、贝多芬、舒伯特、勋伯格等人的作品被视为不可替代的重要诠释。
布伦德尔是当今最权威的舒伯特专家,对舒伯特的作品有独到的研究。1978年全世界纪念舒伯特逝世150周年,他的舒伯特作品系列演奏会与13集电视系列片《布伦德尔演奏舒伯特》是“舒伯特年”的重头戏,他在节目中对每一首奏鸣曲都做了详尽的介绍。他70年代和80年代两次在飞利浦公司录制舒伯特全部钢琴作品。他演奏的舒伯特奏鸣曲当然是权威的阐释。

注意:本资源是DECCA商标版的小双张,与图片稍有出入。请各位参考。

网盘分流:http://pan.baidu.com/share/link?shareid=2935021500&uk=556079949

代码
REM GENRE Classical
REM DATE 1997
REM DISCID 7A111209
REM COMMENT "ExactAudioCopy v0.99pb5"
PERFORMER "Alfred Brendel (piano)"
TITLE "Schubert The Complete ImpromptusMoments musicaux (Disc 1)"
FILE "Alfred Brendel - Schubert The Complete Impromptus Moments musicaux (Disc 1).flac" WAVE
  TRACK 01 AUDIO
    TITLE "Schubert Impromptus, D.899 - No.1 in C minor"
    PERFORMER "Alfred Brendel (piano)"
    INDEX 00 00:00:00
    INDEX 01 00:00:33
  TRACK 02 AUDIO
    TITLE "Schubert Impromptus, D.899 - No.2 in E flat"
    PERFORMER "Alfred Brendel (piano)"
    INDEX 00 09:23:33
    INDEX 01 09:27:33
  TRACK 03 AUDIO
    TITLE "Schubert Impromptus, D.899 - No.3 in G flat"
    PERFORMER "Alfred Brendel (piano)"
    INDEX 00 13:58:33
    INDEX 01 14:01:33
  TRACK 04 AUDIO
    TITLE "Schubert Impromptus, D.899 - No.4 in A flat"
    PERFORMER "Alfred Brendel (piano)"
    INDEX 00 19:49:33
    INDEX 01 19:52:33
  TRACK 05 AUDIO
    TITLE "Schubert Impromptus, D.935 - No.1 in F minor"
    PERFORMER "Alfred Brendel (piano)"
    INDEX 00 27:32:33
    INDEX 01 27:39:33
  TRACK 06 AUDIO
    TITLE "Schubert Impromptus, D.935 - No.2 in A flat"
    PERFORMER "Alfred Brendel (piano)"
    INDEX 00 38:46:33
    INDEX 01 38:49:33
  TRACK 07 AUDIO
    TITLE "Schubert Impromptus, D.935 - No.3 in B flat"
    PERFORMER "Alfred Brendel (piano)"
    INDEX 00 44:34:33
    INDEX 01 44:38:33
  TRACK 08 AUDIO
    TITLE "Schubert Impromptus, D.935 - No.4 in F minor"
    PERFORMER "Alfred Brendel (piano)"
    INDEX 00 56:28:33
    INDEX 01 56:31:33
  TRACK 09 AUDIO
    TITLE "Schubert 16 German Dances, D.783"
    PERFORMER "Alfred Brendel (piano)"
    INDEX 00 61:59:33
    INDEX 01 62:08:33

REM GENRE Classical
REM DATE 1997
REM DISCID 760EA00A
REM COMMENT "ExactAudioCopy v0.99pb5"
PERFORMER "Alfred Brendel (piano)"
TITLE "Schubert The Complete ImpromptusMoments musicaux (Disc 2)"
FILE "Alfred Brendel - Schubert The Complete Impromptus Moments musicaux (Disc 2).flac" WAVE
  TRACK 01 AUDIO
    TITLE "Schubert Klavierstucke (Impromptus), D.946 - No.1 in E flat minor"
    PERFORMER "Alfred Brendel (piano)"
    INDEX 00 00:00:00
    INDEX 01 00:00:32
  TRACK 02 AUDIO
    TITLE "Schubert Klavierstucke (Impromptus), D.946 - No.2 in E flat"
    PERFORMER "Alfred Brendel (piano)"
    INDEX 00 08:59:32
    INDEX 01 09:03:32
  TRACK 03 AUDIO
    TITLE "Schubert Klavierstucke (Impromptus), D.946 - No.3 in C"
    PERFORMER "Alfred Brendel (piano)"
    INDEX 00 18:35:32
    INDEX 01 18:39:32
  TRACK 04 AUDIO
    TITLE "Schubert 6 Moments musicaux, D.780 - No.1 in C"
    PERFORMER "Alfred Brendel (piano)"
    INDEX 00 23:39:32
    INDEX 01 23:45:32
  TRACK 05 AUDIO
    TITLE "Schubert 6 Moments musicaux, D.780 - No.2 in A flat"
    PERFORMER "Alfred Brendel (piano)"
    INDEX 00 28:57:32
    INDEX 01 28:59:32
  TRACK 06 AUDIO
    TITLE "Schubert 6 Moments musicaux, D.780 - No.3 in F minor"
    PERFORMER "Alfred Brendel (piano)"
    INDEX 00 35:26:32
    INDEX 01 35:27:32
  TRACK 07 AUDIO
    TITLE "Schubert 6 Moments musicaux, D.780 - No.4 in C sharp minor"
    PERFORMER "Alfred Brendel (piano)"
    INDEX 01 37:07:32
  TRACK 08 AUDIO
    TITLE "Schubert 6 Moments musicaux, D.780 - No.5 in F minor"
    PERFORMER "Alfred Brendel (piano)"
    INDEX 00 42:25:32
    INDEX 01 42:27:32
  TRACK 09 AUDIO
    TITLE "Schubert 6 Moments musicaux, D.780 - No.6 in A flat"
    PERFORMER "Alfred Brendel (piano)"
    INDEX 00 44:35:32
    INDEX 01 44:38:32
  TRACK 10 AUDIO
    TITLE "Schubert 12 German Dances, D.790"
    PERFORMER "Alfred Brendel (piano)"
    INDEX 00 51:43:32
    INDEX 01 51:48:32


代码
Exact Audio Copy V0.99 prebeta 5 from 4. May 2009

EAC 抓取日志文件从6. 八月 2013, 15:59

Alfred Brendel (piano) / Schubert The Complete ImpromptusMoments musicaux (Disc 1)

使用驱动器  :TSSTcorpCDDVDW SH-222AB   Adapter: 5  ID: 0

读取模式     : 保护
使用精确流   : 是
废除音频缓冲 : 否
使用 C2 指针 : 是

读取偏移校正                   : 6
读取 Lead-In 和 Lead-Out       : 否
用静音填充抓取中丢失偏移的采样 : 是
去除首尾静音块                 : 否
在 CRC 计算中使用了空样本      : 否
已用接口                       : Win NT 及 2000 本地 Win32 接口

所用输出格式   : 用户定义的编码器
已选比特率     : 768 kBit/s
质量           : 高
添加 ID3 标签  : 否
命令行压缩器   : C:\Program Files\Exact Audio Copy\FLAC\FLAC.EXE
附加命令行参数 : -6 -V -T "ARTIST=%a" -T "TITLE=%t" -T "ALBUM=%g" -T "DATE=%y" -T "TRACKNUMBER=%n" -T "GENRE=%m" -T "COMMENT=%e" %s -o %d


被抓轨 CD 的 TOC

     音轨 |   开始   |   长度   | 起始扇区 | 结尾扇区
    --------------------------------------------------
       1  |  0:00.33 |  9:27.00 |      33  |   42557  
       2  |  9:27.33 |  4:34.00 |   42558  |   63107  
       3  | 14:01.33 |  5:51.00 |   63108  |   89432  
       4  | 19:52.33 |  7:47.00 |   89433  |  124457  
       5  | 27:39.33 | 11:10.00 |  124458  |  174707  
       6  | 38:49.33 |  5:49.00 |  174708  |  200882  
       7  | 44:38.33 | 11:53.00 |  200883  |  254357  
       8  | 56:31.33 |  5:37.00 |  254358  |  279632  
       9  | 62:08.33 | 10:42.00 |  279633  |  327782  


范围状态及错误

已选择范围

     文件名 F:\无损音轨\Classical\舒伯特\Schubert The Complete Impromptus Moments musicaux\Alfred Brendel - Schubert The Complete Impromptus Moments musicaux (Disc 1).wav

     峰值电平 93.3 %
     范围质量 99.9 %
     复制 CRC D734EDD1
     复制成功

没有错误发生


AccurateRip 概要

音轨  1  无法精确校验 (确认 18)  [60200E58], AccurateRip 返回 [4C5A3E23]
音轨  2  无法精确校验 (确认 18)  [D8187638], AccurateRip 返回 [5889DFBF]
音轨  3  无法精确校验 (确认 18)  [8B188634], AccurateRip 返回 [B2967343]
音轨  4  无法精确校验 (确认 18)  [B3B64B7C], AccurateRip 返回 [D77B371B]
音轨  5  无法精确校验 (确认 18)  [8C64DB81], AccurateRip 返回 [7EDA3DD9]
音轨  6  无法精确校验 (确认 17)  [AE9685CC], AccurateRip 返回 [58EA62E1]
音轨  7  无法精确校验 (确认 17)  [4EC56CFD], AccurateRip 返回 [271FF614]
音轨  8  无法精确校验 (确认 18)  [E87FA6C7], AccurateRip 返回 [1CCF9C61]
音轨  9  无法精确校验 (确认 16)  [1B3CAA7D], AccurateRip 返回 [9550C960]

没有音轨被精确验证
你可能遇到在数据库中的一词多义

状态报告结尾

Exact Audio Copy V0.99 prebeta 5 from 4. May 2009

EAC 抓取日志文件从6. 八月 2013, 16:13

Alfred Brendel (piano) / Schubert The Complete ImpromptusMoments musicaux (Disc 2)

使用驱动器  :TSSTcorpCDDVDW SH-222AB   Adapter: 5  ID: 0

读取模式     : 保护
使用精确流   : 是
废除音频缓冲 : 否
使用 C2 指针 : 是

读取偏移校正                   : 6
读取 Lead-In 和 Lead-Out       : 否
用静音填充抓取中丢失偏移的采样 : 是
去除首尾静音块                 : 否
在 CRC 计算中使用了空样本      : 否
已用接口                       : Win NT 及 2000 本地 Win32 接口

所用输出格式   : 用户定义的编码器
已选比特率     : 768 kBit/s
质量           : 高
添加 ID3 标签  : 否
命令行压缩器   : C:\Program Files\Exact Audio Copy\FLAC\FLAC.EXE
附加命令行参数 : -6 -V -T "ARTIST=%a" -T "TITLE=%t" -T "ALBUM=%g" -T "DATE=%y" -T "TRACKNUMBER=%n" -T "GENRE=%m" -T "COMMENT=%e" %s -o %d


被抓轨 CD 的 TOC

     音轨 |   开始   |   长度   | 起始扇区 | 结尾扇区
    --------------------------------------------------
       1  |  0:00.32 |  9:03.00 |      32  |   40756  
       2  |  9:03.32 |  9:36.00 |   40757  |   83956  
       3  | 18:39.32 |  5:06.00 |   83957  |  106906  
       4  | 23:45.32 |  5:14.00 |  106907  |  130456  
       5  | 28:59.32 |  6:28.00 |  130457  |  159556  
       6  | 35:27.32 |  1:40.00 |  159557  |  167056  
       7  | 37:07.32 |  5:20.00 |  167057  |  191056  
       8  | 42:27.32 |  2:11.00 |  191057  |  200881  
       9  | 44:38.32 |  7:10.00 |  200882  |  233131  
      10  | 51:48.32 | 10:36.00 |  233132  |  280831  


范围状态及错误

已选择范围

     文件名 F:\无损音轨\Classical\舒伯特\Schubert The Complete Impromptus Moments musicaux\Alfred Brendel - Schubert The Complete Impromptus Moments musicaux (Disc 2).wav

     峰值电平 94.1 %
     范围质量 100.0 %
     复制 CRC D73574F6
     复制成功

没有错误发生


AccurateRip 概要

音轨  1  无法精确校验 (确认 19)  [0250693E], AccurateRip 返回 [8EE1E93A]
音轨  2  无法精确校验 (确认 19)  [4438C794], AccurateRip 返回 [83A25285]
音轨  3  无法精确校验 (确认 18)  [A002A7C1], AccurateRip 返回 [C8BC5286]
音轨  4  无法精确校验 (确认 19)  [7765E51A], AccurateRip 返回 [86EF6998]
音轨  5  无法精确校验 (确认 19)  [637CC613], AccurateRip 返回 [E6D8C0B5]
音轨  6  无法精确校验 (确认 19)  [D4975F79], AccurateRip 返回 [CDB0F9A9]
音轨  7  无法精确校验 (确认 19)  [3364B919], AccurateRip 返回 [6DE5BBBB]
音轨  8  无法精确校验 (确认 19)  [89A9E4C4], AccurateRip 返回 [DE2583C4]
音轨  9  无法精确校验 (确认 19)  [907BCD57], AccurateRip 返回 [F74B5B9E]
音轨 10  无法精确校验 (确认 19)  [CE903F41], AccurateRip 返回 [A4CC3B3D]

没有音轨被精确验证
你可能遇到在数据库中的一词多义

状态报告结尾



专辑曲目

CD1
1. Schubert Impromptus, D.899 - No.1 in C minor
2. Schubert Impromptus, D.899 - No.2 in E flat
3. Schubert Impromptus, D.899 - No.3 in G flat
4. Schubert Impromptus, D.899 - No.4 in A flat
5. Schubert Impromptus, D.935 - No.1 in F minor
6. Schubert Impromptus, D.935 - No.2 in A flat
7. Schubert Impromptus, D.935 - No.3 in B flat
8. Schubert Impromptus, D.935 - No.4 in F minor
9. Schubert 16 German Dances, D.783

CD2
1. Schubert Klavierstucke (Impromptus), D.946 - No.1 in E flat minor
2. Schubert Klavierstucke (Impromptus), D.946 - No.2 in E flat
3. Schubert Klavierstucke (Impromptus), D.946 - No.3 in C
4. Schubert 6 Moments musicaux, D.780 - No.1 in C
5. Schubert 6 Moments musicaux, D.780 - No.2 in A flat
6. Schubert 6 Moments musicaux, D.780 - No.3 in F minor
7. Schubert 6 Moments musicaux, D.780 - No.4 in C sharp minor
8. Schubert 6 Moments musicaux, D.780 - No.5 in F minor
9. Schubert 6 Moments musicaux, D.780 - No.6 in A flat
10. Schubert 12 German Dances, D.790

正在读取……

这里是其它用户补充的资源(我也要补充):

暂无补充资源
正在加载,请稍等...

点击查看所有107网友评论

 

(?) [公告]留口水、评论相关规则 | [活动]每日签到 轻松领取电驴经验

    小贴士:
  1. 类似“顶”、“沙发”之类没有营养的文字,对勤劳贡献的楼主来说是令人沮丧的反馈信息。
  2. 提问之前请再仔细看一遍楼主的说明,或许是您遗漏了。
  3. 勿催片。请相信驴友们对分享是富有激情的,如果确有更新版本,您一定能搜索到。
  4. 请勿到处挖坑绊人、招贴广告。既占空间让人厌烦,又没人会搭理,于人于己都无利。
  5. 如果您发现自己的评论不见了,请参考以上4条。