v

您的位置:VeryCD音乐古典音乐

音乐资源事务区


Bruno Walter 布鲁诺·瓦尔特 -《贝多芬第四、第六“田园”交响曲》(Beethoven Symphonies No.4 & No.6 "Pastorale")[FLAC]

  • 状态: 精华资源
  • 摘要:
    古典类型交响曲
    发行时间1995年
  • 时间: 2013/09/06 12:40:46 发布 | 2013/09/11 16:41:03 更新
  • 分类: 音乐  古典音乐 

tefantasy

精华资源: 5

全部资源: 5

相关: 分享到新浪微博   转播到腾讯微博   分享到开心网   分享到人人   分享到QQ空间   订阅本资源RSS更新   美味书签  subtitle
该内容尚未提供权利证明,无法提供下载。
专辑英文名Beethoven Symphonies No.4 & No.6 "Pastorale"
专辑中文名贝多芬第四、第六“田园”交响曲
古典类型交响曲
资源格式FLAC
发行时间1995年
地区美国
简介

IPB Image

唱片编号:SMK 64462
演奏者:Bruno Walter, Columbia Symphony Orchestra
来源:自抓

专辑介绍:

降B大调第四交响曲是处于恋爱时节中的贝多芬才华横溢的体现,而其主题就正是赞美生命和爱情。1806年,当时贝多芬的恋人是匈牙利贵族小姐特雷泽。特雷泽曾与贝多芬订婚,而且感情维系了4年左右,可以说是贝多芬一生中最稳定的一段感情生活。所以他的创作热情特别高,才思敏捷。贝多芬唯一一部小提琴协奏曲(D大调小提琴协奏曲)就是在这时候写成的。此后的G大调第四钢琴协奏曲也是迅速的落笔,迅速的完成,而被誉为“塑造贝多芬情人形象”的一部作品。

F大调第六交响曲,又名“田园交响曲”,德国作曲家贝多芬的代表作之一,并亲自命名为《田园》。本曲大约完成于1808年,是他少数的各乐章均有标题的作品之一,也是贝多芬九首交响乐作品中标题性最为明确的一部。此时的贝多芬双耳已经完全失聪,这部作品正表现了他在这种情况下对大自然的依恋之情,是一部体现回忆的作品。这部作品1808年在维也纳首演,由贝多芬亲自指挥,在首演节目单上,他写到:“乡村生活的回忆,写情多于写景”。整部作品细腻动人,朴实无华,宁静而安逸。

布鲁诺·瓦尔特,德国美籍指挥家,钢琴家。他的指挥风格柔和优美,将管弦乐的各声部都处理得富于歌唱性;他继承和发展了德国的指挥传统,被誉为“莫扎特专家”;他特别擅长于指挥贝多芬、勃拉姆斯、马勒的作品。布鲁诺·瓦尔特对贝多芬“田园”交响曲的演绎,是本世纪指挥家中的传奇,而他也一向对这部作品情有独钟,早在78转的录音时代,他就传有两版。其中1960年的录音被欧美乐评视为他指挥艺术的颠峰之作。在此片中,他驱使一腔热血,驾驭手下的哥伦比亚交响乐团,展现出最具人文关怀和人性的演出,没有激昂,没有矫作,只是想尽办法把音乐中属于人的一面,尽情宣泄。

此版被评为TAS发烧名片、企鹅三星带花版本。


分流下载:http://kuai.xunlei.com/d/LsWGAQKBlgD8JixS4d0


代码
REM GENRE Classical
REM DATE 1958
REM DISCID 96110D09
REM COMMENT "ExactAudioCopy v0.99pb5"
PERFORMER "Columbia Symphony Orchestra & Bruno Walter"
TITLE "Beethoven Symphonies 4 & 6"
FILE "Columbia Symphony Orchestra & Bruno Walter - Beethoven Symphonies 4 & 6.flac" WAVE
  TRACK 01 AUDIO
    TITLE "Beethoven Symphony No.4 in B-flat major, Op.60|I. Adagio Allegro vivace"
    PERFORMER "Columbia Symphony Orchestra & Bruno Walter"
    INDEX 01 00:00:00
  TRACK 02 AUDIO
    TITLE "Beethoven Symphony No.4 in B-flat major, Op.60|II. Adagio"
    PERFORMER "Columbia Symphony Orchestra & Bruno Walter"
    INDEX 00 09:42:53
    INDEX 01 09:46:60
  TRACK 03 AUDIO
    TITLE "Beethoven Symphony No.4 in B-flat major, Op.60|III. Allegro vivace"
    PERFORMER "Columbia Symphony Orchestra & Bruno Walter"
    INDEX 00 19:38:13
    INDEX 01 19:42:63
  TRACK 04 AUDIO
    TITLE "Beethoven Symphony No.4 in B-flat major, Op.60|IV. Allegro ma non troppo"
    PERFORMER "Columbia Symphony Orchestra & Bruno Walter"
    INDEX 01 25:57:35
  TRACK 05 AUDIO
    TITLE "Beethoven Symphony No.6 in F major, Op.68 Pastoral|I. Allegro ma non troppo"
    PERFORMER "Columbia Symphony Orchestra & Bruno Walter"
    INDEX 00 31:48:55
    INDEX 01 31:56:55
  TRACK 06 AUDIO
    TITLE "Beethoven Symphony No.6 in F major, Op.68 Pastoral|II. Andante molto moto"
    PERFORMER "Columbia Symphony Orchestra & Bruno Walter"
    INDEX 00 41:44:63
    INDEX 01 41:47:73
  TRACK 07 AUDIO
    TITLE "Beethoven Symphony No.6 in F major, Op.68 Pastoral|III. Allegro"
    PERFORMER "Columbia Symphony Orchestra & Bruno Walter"
    INDEX 00 53:38:45
    INDEX 01 53:43:33
  TRACK 08 AUDIO
    TITLE "Beethoven Symphony No.6 in F major, Op.68 Pastoral|IV. Allegro"
    PERFORMER "Columbia Symphony Orchestra & Bruno Walter"
    INDEX 00 59:24:68
    INDEX 01 59:24:70
  TRACK 09 AUDIO
    TITLE "Beethoven Symphony No.6 in F major, Op.68 Pastoral|V. Allegretto"
    PERFORMER "Columbia Symphony Orchestra & Bruno Walter"
    INDEX 01 63:06:08


代码
Exact Audio Copy V0.99 prebeta 5 from 4. May 2009

EAC 抓取日志文件从6. 八月 2013, 9:08

Columbia Symphony Orchestra & Bruno Walter / Beethoven?Symphonies 4 ? 6

使用驱动器  :TSSTcorpCDDVDW SH-222AB   Adapter: 5  ID: 0

读取模式     : 保护
使用精确流   : 是
废除音频缓冲 : 否
使用 C2 指针 : 是

读取偏移校正                   : 6
读取 Lead-In 和 Lead-Out       : 否
用静音填充抓取中丢失偏移的采样 : 是
去除首尾静音块                 : 否
在 CRC 计算中使用了空样本      : 否
已用接口                       : Win NT 及 2000 本地 Win32 接口

所用输出格式   : 用户定义的编码器
已选比特率     : 768 kBit/s
质量           : 高
添加 ID3 标签  : 否
命令行压缩器   : C:\Program Files\Exact Audio Copy\FLAC\FLAC.EXE
附加命令行参数 : -6 -V -T "ARTIST=%a" -T "TITLE=%t" -T "ALBUM=%g" -T "DATE=%y" -T "TRACKNUMBER=%n" -T "GENRE=%m" -T "COMMENT=%e" %s -o %d


被抓轨 CD 的 TOC

     音轨 |   开始   |   长度   | 起始扇区 | 结尾扇区
    --------------------------------------------------
       1  |  0:00.00 |  9:46.60 |       0  |   44009  
       2  |  9:46.60 |  9:56.03 |   44010  |   88712  
       3  | 19:42.63 |  6:14.47 |   88713  |  116809  
       4  | 25:57.35 |  5:59.20 |  116810  |  143754  
       5  | 31:56.55 |  9:51.18 |  143755  |  188097  
       6  | 41:47.73 | 11:55.35 |  188098  |  241757  
       7  | 53:43.33 |  5:41.37 |  241758  |  267369  
       8  | 59:24.70 |  3:41.13 |  267370  |  283957  
       9  | 63:06.08 |  9:39.12 |  283958  |  327394  


范围状态及错误

已选择范围

     文件名 F:\无损音轨\Classical\贝多芬\Columbia Symphony Orchestra & Bruno Walter - Beethoven Symphonies 4 & 6\Columbia Symphony Orchestra & Bruno Walter - Beethoven Symphonies 4 & 6.wav

     峰值电平 97.7 %
     范围质量 100.0 %
     复制 CRC 142107E4
     复制成功

没有错误发生


AccurateRip 概要

音轨  1  已正确抓取 (确认 12)  [FBB9C6DD]
音轨  2  已正确抓取 (确认 12)  [ABDBB16A]
音轨  3  已正确抓取 (确认 12)  [4EC8C8F8]
音轨  4  已正确抓取 (确认 12)  [EC6B8CE5]
音轨  5  已正确抓取 (确认 13)  [9E6313AD]
音轨  6  已正确抓取 (确认 12)  [5B4E752D]
音轨  7  已正确抓取 (确认 12)  [F306C0E1]
音轨  8  已正确抓取 (确认 12)  [5A002ED9]
音轨  9  已正确抓取 (确认 12)  [46A3B644]

所有音轨已被精确抓取

状态报告结尾



专辑曲目

Beethoven Symphony No.4 in B-flat major, Op.60
1. I. Adagio Allegro vivace
2. II. Adagio
3. III. Allegro vivace
4. IV. Allegro ma non troppo

Beethoven Symphony No.6 in F major, Op.68 "Pastoral"
5. I. Allegro ma non troppo
6. II. Andante molto moto
7. III. Allegro
8. IV. Allegro
9. V. Allegretto

正在读取……

这里是其它用户补充的资源(我也要补充):

暂无补充资源
正在加载,请稍等...

点击查看所有104网友评论

 

(?) [公告]留口水、评论相关规则 | [活动]每日签到 轻松领取电驴经验

    小贴士:
  1. 类似“顶”、“沙发”之类没有营养的文字,对勤劳贡献的楼主来说是令人沮丧的反馈信息。
  2. 提问之前请再仔细看一遍楼主的说明,或许是您遗漏了。
  3. 勿催片。请相信驴友们对分享是富有激情的,如果确有更新版本,您一定能搜索到。
  4. 请勿到处挖坑绊人、招贴广告。既占空间让人厌烦,又没人会搭理,于人于己都无利。
  5. 如果您发现自己的评论不见了,请参考以上4条。