v

您的位置:VeryCD音乐古典音乐

音乐资源事务区


平诺克 -《英国巴洛克音乐会》(A Grand Concert of Musick (ARCHIV))[FLAC]

  • 状态: 精华资源
  • 摘要:
    古典类型协奏曲
    发行时间2013年
  • 时间: 2013/08/31 13:04:41 发布 | 2013/09/09 09:55:35 更新
  • 分类: 音乐  古典音乐 

Div1ne

精华资源: 4

全部资源: 4

相关: 分享到新浪微博   转播到腾讯微博   分享到开心网   分享到人人   分享到QQ空间   订阅本资源RSS更新   美味书签  subtitle
该内容尚未提供权利证明,无法提供下载。
专辑英文名A Grand Concert of Musick (ARCHIV)
专辑中文名英国巴洛克音乐会
艺术家平诺克
古典类型协奏曲
资源格式FLAC
发行时间2013年
地区美国
简介

IPB Image

专辑编号:0289 479 1406

专辑介绍:

英国巴洛克时期作品音乐会,平诺克指挥。
2013年ARCHIV重新发布,内附ARCHIV 96pages的纪念册,包含ARCHIV产品目录。
这张CD的原始录音发行于1979年,这张再版是ARCIV在2013年庆祝ARCHIV 66年以来的成就发布的纪念版。

至于专辑曲目的选曲,booklet里说:“在1710年,亨德尔到了伦敦以后,见到了这些作曲家。到了1730年他们的作品就可以很好的代表一个民族(应该是英国),这些选择的曲目倒代表了这些作曲家生活的年代时伦敦的大致情形——他们没有出生在一个音乐非常辉煌的氛围里,但是一个辉煌的音乐大世造就了一些极其出色的演奏家和作曲家”(翻译的不好敬请指正)

平诺克:
特雷沃·平诺克(Trevor Pinnock)1946年生于英国坎特伯雷。自幼进入坎特伯雷教堂唱诗班,饱受音乐传统熏陶。1963-1967年间入皇家音乐学院深造,主修羽管键琴和管风琴,均以优异成绩获得奖学金。1966-1972年间他自组了Galliard三重奏团(包括长笛、大提琴和大键琴三件乐器),这个以17、18世纪欧洲宫廷舞蹈命名的团体演奏也以那一时期的作品为主。此后的平诺克,迅速在大键琴领域崛起,他频频登台,或独奏或重奏或与大乐队交相辉映,还随著名的圣马丁学院管弦乐团到欧洲演出。其精湛的琴技远近闻名,很快跃居英国大键琴界的第一把交椅。


发行背景ARCHIV官网介绍:

On Friday 5 April, at a special event at the Villa Elisabeth in Berlin, leading classical record label Deutsche Grammophon reaffirmed its commitment to early music by revealing new plans and signings for its specialist label, Archiv Produktion.

Staged to celebrate 66 years since the foundation of the historic Archiv label, over 200 guests from the classical artist community, and the worlds of media, retail and digital, alongside former label producers and researchers, enjoyed stunning performances from British-Austrian soprano Anna Prohaska, Italian violinist Giuliano Carmignola and Vittorio Ghielmi, the Italian conductor/composer and distinguished Viola da Gamba player. Both Anna Prohaska and Giuliano Carmignola have recently released new albums on the Archiv label.

Enjoying sales of over 70 million albums since its founding in 1947, the “Silver Label”, as it is known, has been the home of some of the great pioneers of the early music and authentic performance movements of the last six decades. From artists such as Helmut Walcha – whose recordings of Bach organ works were among the label’s first releases, in 1948 – through names such as Karl Richter, Reinhard Goebel, Sir John Eliot Gardiner, Magdalena Kožená, Andrea Marcon, Anne Sofie von Otter, Trevor Pinnock, Alan Curtis, Simone Kermes, Paul McCreesh and Marc Minkowski – the label has always prided itself on its unique combination of artistic excellence and repertoire development and discovery, which from the beginning has been supported by the highest level of scholarly yet accessible information and presentation.

Hosting the evening, Deutsche Grammophon’s Mark Wilkinson announced a series of new products and initiatives, including the new deluxe Archiv Produktion boxed set – a 55-CD set featuring award-winning albums from the last 66 years – and extensive reissues of choral and Christmas repertoire for the autumn, as well as a special album celebrating 50 years of The Monteverdi Choir for 2014. In addition, he welcomed Pablo Heras-Casado to the label as one of a new generation of “Archiv Ambassadors”, with the dynamic Spanish conductor leading a unique Farinelli project, as well as recording a Gluck opera for the label in 2014 – a first recording of Orfeo ed Euridice for Archiv in the original Italian version. New albums celebrating future Monteverdi and Shakespeare anniversaries were also announced, along with a Handel opera project from René Jacobs, and a rejuvenated presence for the label in the digital and social network space.

“As classical music encounters all of the opportunities of the digital era, we want to ensure that Archiv grows from strength to strength as a vibrant, relevant and distinct label of excellence,” Mark Wilkinson said. “Early music is the perfect place to discover the unusual, the daring, and very often the exotic, and we look forward to working with all of our artists to spread the true ‘spirit of Archiv’ in the future.”



第一次上传资源,做的不周到敬请见谅。学生党不能长期供源,在此提供网盘地址:

http://www.pipipan.com/file/28930243



代码
REM DATE 2013
PERFORMER "Trevor Pinnock"
TITLE "A Grand Concert of Musick (ARCHIV),English Baroque Concertos"
FILE "Trevor Pinnock - A Grand Concert of Musick (ARCHIV),English Baroque Concertos.Flac" WAVE
  TRACK 01 AUDIO
    TITLE "Concerto in G major Op.2 no.3 I. Adagio - Allegro"
    INDEX 01 00:00:00
  TRACK 02 AUDIO
    TITLE "Concerto in G major Op.2 no.3 II. Andante"
    INDEX 01 04:05:00
  TRACK 03 AUDIO
    TITLE "Concerto in G major Op.2 no.3 III. Allegro"
    INDEX 01 05:48:62
  TRACK 04 AUDIO
    TITLE "Concerto in G minor for Keyboard and Orchestra I. Largo - Allegro con spirito"
    INDEX 01 08:47:00
  TRACK 05 AUDIO
    TITLE "Concerto in G minor for Keyboard and Orchestra II. Adagio"
    INDEX 01 14:26:25
  TRACK 06 AUDIO
    TITLE "Concerto in G minor for Keyboard and Orchestra III. Vivace"
    INDEX 01 15:47:00
  TRACK 07 AUDIO
    TITLE "Symphony in B flat major I. Allegro"
    INDEX 01 20:22:00
  TRACK 08 AUDIO
    TITLE "Symphony in B flat major II. Moderato e dolce"
    INDEX 01 22:59:37
  TRACK 09 AUDIO
    TITLE "Symphony in B flat major III. Allegro"
    INDEX 01 25:21:00
  TRACK 10 AUDIO
    TITLE "Concerto grosso in D minor"
    INDEX 01 27:24:00
  TRACK 11 AUDIO
    TITLE "Concerto in E flat major Op.3 no.4 I. Grave sostenuto"
    INDEX 01 39:48:00
  TRACK 12 AUDIO
    TITLE "Concerto in E flat major Op.3 no.4 II. Alla breve"
    INDEX 01 43:46:00
  TRACK 13 AUDIO
    TITLE "Concerto in E flat major Op.3 no.4 III. Affettuoso"
    INDEX 01 45:27:00
  TRACK 14 AUDIO
    TITLE "Concerto in E flat major Op.3 no.4 IV. Presto"
    INDEX 01 47:01:00
  TRACK 15 AUDIO
    TITLE "Concerto in E flat major Op.3 no.4 V. Pastorale"
    INDEX 01 48:35:25
  TRACK 16 AUDIO
    TITLE "Concerto grosso No.9 in C major/A minor I. Largo"
    INDEX 01 51:37:00
  TRACK 17 AUDIO
    TITLE "Concerto grosso No.9 in C major/A minor II. Con spirito - Andante - Con spirito"
    INDEX 01 53:48:00
  TRACK 18 AUDIO
    TITLE "Concerto grosso No.9 in C major/A minor III. Siciliana"
    INDEX 01 56:57:00
  TRACK 19 AUDIO
    TITLE "Concerto grosso No.9 in C major/A minor IV. Allegro"
    INDEX 01 60:15:00



专辑曲目

1.Concerto in G major Op.2 no.3 I. Adagio - Allegro
2.Concerto in G major Op.2 no.3 II. Andante
3.Concerto in G major Op.2 no.3 III. Allegro
4.Concerto in G minor for Keyboard and Orchestra I. Largo - Allegro con spirito
5.Concerto in G minor for Keyboard and Orchestra II. Adagio
6.Concerto in G minor for Keyboard and Orchestra III. Vivace
7.Symphony in B flat major I. Allegro
8.Symphony in B flat major II. Moderato e dolce
9.Symphony in B flat major III. Allegro
10.Concerto grosso in D minor
11.Concerto in E flat major Op.3 no.4 I. Grave sostenuto
12.Concerto in E flat major Op.3 no.4 II. Alla breve
13.Concerto in E flat major Op.3 no.4 III. Affettuoso
14.Concerto in E flat major Op.3 no.4 IV. Presto
15.Concerto in E flat major Op.3 no.4 V. Pastorale
16.Concerto grosso No.9 in C major/A minor I. Largo
17.Concerto grosso No.9 in C major/A minor II. Con spirito - Andante - Con spirito
18.Concerto grosso No.9 in C major/A minor III. Siciliana
19.Concerto grosso No.9 in C major/A minor IV. Allegro

正在读取……

这里是其它用户补充的资源(我也要补充):

暂无补充资源
正在加载,请稍等...

点击查看所有81网友评论

 

(?) [公告]留口水、评论相关规则 | [活动]每日签到 轻松领取电驴经验

    小贴士:
  1. 类似“顶”、“沙发”之类没有营养的文字,对勤劳贡献的楼主来说是令人沮丧的反馈信息。
  2. 提问之前请再仔细看一遍楼主的说明,或许是您遗漏了。
  3. 勿催片。请相信驴友们对分享是富有激情的,如果确有更新版本,您一定能搜索到。
  4. 请勿到处挖坑绊人、招贴广告。既占空间让人厌烦,又没人会搭理,于人于己都无利。
  5. 如果您发现自己的评论不见了,请参考以上4条。