v

您的位置:VeryCD音乐古典音乐

音乐资源事务区


托斯卡尼尼 -《理查德施特劳斯:唐吉可德,死与净化》(Strauss Don Quixote & Tod Und Verklarung)[FLAC]

  • 状态: 精华资源
  • 摘要:
    古典类型交响曲
    发行时间1990年
  • 时间: 2013/08/31 12:30:17 发布 | 2013/09/07 10:41:20 更新
  • 分类: 音乐  古典音乐 

Div1ne

精华资源: 4

全部资源: 4

相关: 分享到新浪微博   转播到腾讯微博   分享到开心网   分享到人人   分享到QQ空间   订阅本资源RSS更新   美味书签  subtitle
该内容尚未提供权利证明,无法提供下载。
专辑英文名Strauss Don Quixote & Tod Und Verklarung
专辑中文名理查德施特劳斯:唐吉可德,死与净化
艺术家托斯卡尼尼
古典类型交响曲
资源格式FLAC
发行时间1990年
地区美国
简介

IPB Image

专辑介绍:

理查德·施特劳斯(Richard Strauss 1864-1949) 是近代德国杰出的作曲家及指挥家。他于1864年生于慕尼黑,其父是宫廷乐队的圆号手,五岁开始作曲,十岁前就写了《节日进行曲》和《木管小夜曲》。后入慕尼黑大学学习,中途辍学,去曼宁根乐队担任著名指挥家比罗的副指挥,后任正指挥。在乐队里,他受第二小提琴手、音乐哲学家里特的影响,要求“以李斯特、柏辽兹及瓦格纳的作品为榜样来表达音乐”。从此,专注于交响诗的写作,作有《唐璜》、《堂·吉诃德》、《死与进化》、《英雄生涯》以及《家庭交响曲》等九部交响诗及其他管弦乐曲。1900年后专心于歌剧创作,写了《莎乐美》、《埃列克特拉》、《玫瑰骑士》等十四部歌剧。他的创作以色彩艳丽、形象生动、手法新颖而著称。他还是世界上最卓越的歌剧和交响乐指挥之一,先后担任过慕尼黑歌剧院、柏林爱乐乐团、柏林皇家歌剧院、维也纳歌剧院等著名音乐团体的指挥,并且是瓦格纳作品的权威注释者。



此版由托斯卡尼尼演绎,包含施特劳斯的唐吉可德,死与净化
RCA金标,Life of toscanini系列,Vol.30


第一次上传资源,做的不周到敬请见谅。学生党不能长期供源,在此提供网盘地址:

http://www.pipipan.com/file/28928956

代码
REM DATE 1990
PERFORMER "Arturo Toscanini, NBC Symphony Orchestra"
TITLE "Strauss Don Quixote & Tod Und Verklarung"
FILE "Arturo Toscanini, NBC Symphony Orchestra - Strauss Don Quixote & Tod Und Verklarung.flac" WAVE
  TRACK 01 AUDIO
    TITLE "Don Quixote, Op.35 Introduction"
    INDEX 01 00:00:00
  TRACK 02 AUDIO
    TITLE "Don Quixote, Op.35 Theme Don Quixote, the Knight of the Sorrowful Countenance"
    INDEX 01 05:37:50
  TRACK 03 AUDIO
    TITLE "Don Quixote, Op.35 Variation I[The Adventure with the Windmills]"
    INDEX 01 07:38:13
  TRACK 04 AUDIO
    TITLE "Don Quixote, Op.35 Variation II[The Battle with the Sheep]"
    INDEX 01 10:11:08
  TRACK 05 AUDIO
    TITLE "Don Quixote, Op.35 Variation III[Dialoge of Knight and Squire]"
    INDEX 01 11:56:18
  TRACK 06 AUDIO
    TITLE "Don Quixote, Op.35 Variation IV[The Adventure with the Penitents]"
    INDEX 01 19:30:25
  TRACK 07 AUDIO
    TITLE "Don Quixote, Op.35 Variation V[The Knight's Vigil]"
    INDEX 01 21:28:50
  TRACK 08 AUDIO
    TITLE "Don Quixote, Op.35 Variation VI[The False Dulcinea]"
    INDEX 01 24:59:13
  TRACK 09 AUDIO
    TITLE "Don Quixote, Op.35 Variation VII[The Ride Through the Air]"
    INDEX 01 26:14:70
  TRACK 10 AUDIO
    TITLE "Don Quixote, Op.35 Variation VIII[The Adventure of the Enchanted Boat]"
    INDEX 01 27:18:25
  TRACK 11 AUDIO
    TITLE "Don Quixote, Op.35 Variation IX[The Comvat with the Two Magicians]"
    INDEX 01 29:09:73
  TRACK 12 AUDIO
    TITLE "Don Quixote, Op.35 Variation X[The Defeat of Don Quixote by the Knight of the White Moon]"
    INDEX 01 30:13:68
  TRACK 13 AUDIO
    TITLE "Don Quixote, Op.35 Finale[The Death of Don Quixote]"
    INDEX 01 34:24:00
  TRACK 14 AUDIO
    TITLE "Tod Und Verklarung, Op.24 I. Largo[Happy Memories of Childhood]"
    INDEX 01 39:41:25
  TRACK 15 AUDIO
    TITLE "Tod Und Verklarung, Op.24 II. Allegro molto aditato[Life and Death Battle]"
    INDEX 01 45:03:48
  TRACK 16 AUDIO
    TITLE "Tod Und Verklarung, Op.24 III. Meno mosso, ma sempre alla breve[Dreams of the Dying; Death]"
    INDEX 01 49:17:65
  TRACK 17 AUDIO
    TITLE "Tod Und Verklarung, Op.24 IV. Moderato[Transfiguration]"
    INDEX 01 57:33:13



专辑曲目

1.Don Quixote, Op.35 Introduction
2.Don Quixote, Op.35 Theme Don Quixote, the Knight of the Sorrowful Countenance
3.Don Quixote, Op.35 Variation I[The Adventure with the Windmills]
4.Don Quixote, Op.35 Variation II[The Battle with the Sheep]
5.Don Quixote, Op.35 Variation III[Dialoge of Knight and Squire]
6.Don Quixote, Op.35 Variation IV[The Adventure with the Penitents]
7.Don Quixote, Op.35 Variation V[The Knight's Vigil]
8.Don Quixote, Op.35 Variation VI[The False Dulcinea]
9.Don Quixote, Op.35 Variation VII[The Ride Through the Air]
10.Don Quixote, Op.35 Variation VIII[The Adventure of the Enchanted Boat]
11.Don Quixote, Op.35 Variation IX[The Comvat with the Two Magicians]
12.Don Quixote, Op.35 Variation X[The Defeat of Don Quixote by the Knight of the White Moon]
13.Don Quixote, Op.35 Finale[The Death of Don Quixote]
14.Tod Und Verklarung, Op.24 I. Largo[Happy Memories of Childhood]
15.Tod Und Verklarung, Op.24 II. Allegro molto aditato[Life and Death Battle]
16.Tod Und Verklarung, Op.24 III. Meno mosso, ma sempre alla breve[Dreams of the Dying; Death]
17.Tod Und Verklarung, Op.24 IV. Moderato[Transfiguration]

正在读取……

这里是其它用户补充的资源(我也要补充):

暂无补充资源
正在加载,请稍等...

点击查看所有98网友评论

 

(?) [公告]留口水、评论相关规则 | [活动]每日签到 轻松领取电驴经验

    小贴士:
  1. 类似“顶”、“沙发”之类没有营养的文字,对勤劳贡献的楼主来说是令人沮丧的反馈信息。
  2. 提问之前请再仔细看一遍楼主的说明,或许是您遗漏了。
  3. 勿催片。请相信驴友们对分享是富有激情的,如果确有更新版本,您一定能搜索到。
  4. 请勿到处挖坑绊人、招贴广告。既占空间让人厌烦,又没人会搭理,于人于己都无利。
  5. 如果您发现自己的评论不见了,请参考以上4条。