v

您的位置:VeryCD音乐古典音乐

音乐资源事务区


Arturo Toscanini 托斯卡尼尼 -《西贝柳斯:第二交响曲等》(Sibelius Symphony No.2 & Others)[FLAC]

  • 状态: 精华资源
  • 摘要:
    古典类型交响曲
    发行时间1997年
  • 时间: 2013/08/31 12:19:57 发布 | 2013/09/07 10:41:05 更新
  • 分类: 音乐  古典音乐 

Div1ne

精华资源: 4

全部资源: 4

相关: 分享到新浪微博   转播到腾讯微博   分享到开心网   分享到人人   分享到QQ空间   订阅本资源RSS更新   美味书签  subtitle
该内容尚未提供权利证明,无法提供下载。
专辑英文名Sibelius Symphony No.2 & Others
专辑中文名西贝柳斯:第二交响曲等
古典类型交响曲
资源格式FLAC
发行时间1997年
地区日本
简介

IPB Image

专辑介绍:

D大调第二交响曲,芬兰作曲家西贝柳斯作于1900年到1902年之间,并亲自指挥初演,是西贝柳斯交响曲作品中最流行的一部。D大调第二交响曲不但继承了先人的传统,也明显地体现出西贝柳斯的个性。作者本人称这部作品描写的是“芬兰为政治自由而斗争”。而有人将此作品称为西贝柳斯的《田园交响曲》,是因为这部作品有着很强烈的芬兰风土气息,和浓厚的北欧民谣色彩。西贝柳斯的许多作品中,有许多是直接将民谣改编为钢琴曲或歌曲的,表现了他对芬兰民谣的执迷。


此版由托斯卡尼尼演绎,包含西贝柳斯第二交响曲,Pohjola's daughter,黄泉的天鹅,芬兰颂。
Life of Toscanini系列。RCA。


第一次上传资源,做的不周到敬请见谅。学生党不能长期供源,在此提供网盘地址:

http://www.pipipan.com/file/28927960

代码
REM DATE 1997
PERFORMER "Arturo Toscanini,NBC Symphony Orchestra"
TITLE "Sibelius Symphony No.2 & Others"
FILE "Arturo Toscanini,NBC Symphony Orchestra - Sibelius Symphony No.2 & Others.FLAC" WAVE
  TRACK 01 AUDIO
    TITLE "Sibelius Symphony No.2 I. Allegretto"
    INDEX 01 00:00:00
  TRACK 02 AUDIO
    TITLE "Sibelius Symphony No.2 II. Tempo andante, ma rubato"
    INDEX 01 08:38:22
  TRACK 03 AUDIO
    TITLE "Sibelius Symphony No.2 III. Vivacissimo"
    INDEX 01 20:41:17
  TRACK 04 AUDIO
    TITLE "Sibelius Symphony No.2 IV. Finale: Allegro moderato"
    INDEX 01 26:21:27
  TRACK 05 AUDIO
    TITLE "Pohjola's Daughter, Op.49"
    INDEX 01 38:39:30
  TRACK 06 AUDIO
    TITLE "The Swan of Tuonela(Lemminkainen Suite, Op22, No.2)"
    INDEX 01 51:25:50
  TRACK 07 AUDIO
    TITLE "Finlandia, Op.26"
    INDEX 01 60:54:55



专辑曲目

1.Sibelius Symphony No.2 I. Allegretto
2.Sibelius Symphony No.2 II. Tempo andante, ma rubato
3.Sibelius Symphony No.2 III. Vivacissimo
4.Sibelius Symphony No.2 IV. Finale: Allegro moderato
5.Pohjola's Daughter, Op.49
6.The Swan of Tuonela(Lemminkainen Suite, Op22, No.2)
7.Finlandia, Op.26

正在读取……

这里是其它用户补充的资源(我也要补充):

暂无补充资源
正在加载,请稍等...

点击查看所有60网友评论

 

(?) [公告]留口水、评论相关规则 | [活动]每日签到 轻松领取电驴经验

    小贴士:
  1. 类似“顶”、“沙发”之类没有营养的文字,对勤劳贡献的楼主来说是令人沮丧的反馈信息。
  2. 提问之前请再仔细看一遍楼主的说明,或许是您遗漏了。
  3. 勿催片。请相信驴友们对分享是富有激情的,如果确有更新版本,您一定能搜索到。
  4. 请勿到处挖坑绊人、招贴广告。既占空间让人厌烦,又没人会搭理,于人于己都无利。
  5. 如果您发现自己的评论不见了,请参考以上4条。