v

您的位置:VeryCD音乐古典音乐

音乐资源事务区


Bruno Walter 布鲁诺瓦尔特 -《舒伯特:第五第八交响曲》(The Great Schubert Symphonies)[FLAC]

  • 状态: 精华资源
  • 摘要:
    古典类型交响曲
    发行时间2006年
  • 时间: 2013/08/31 12:08:23 发布 | 2013/09/05 20:35:35 更新
  • 分类: 音乐  古典音乐 

Div1ne

精华资源: 4

全部资源: 4

相关: 分享到新浪微博   转播到腾讯微博   分享到开心网   分享到人人   分享到QQ空间   订阅本资源RSS更新   美味书签  subtitle
该内容尚未提供权利证明,无法提供下载。
专辑英文名The Great Schubert Symphonies
专辑中文名舒伯特:第五第八交响曲
古典类型交响曲
资源格式FLAC
发行时间2006年
地区美国
简介

IPB Image

专辑介绍:

舒伯特降B大调第五交响曲,作于1816年。这部乐队编制很小、温文尔雅的作品,完善地展示了18世纪古典交响曲的风范,严谨方正,古意盎然,可与海顿、莫扎特的作品媲美。

舒伯特b小调第八交响曲“未完成”,作于1822年,作者时年25岁,但直到43年后乐谱才被发现,并于1865年首次公演。本交响曲唯有第一、第二两乐章拥有完整的曲谱,第三乐章只有九小节改编为管弦乐曲,其它部分仍停留在钢琴曲谱的形态,第四乐章则连草稿都没有。但由于此曲的已完成部分乐章出彩,故在形式上虽然未完成,但实际上完整无缺,并因此引出许多穿凿附会的传说,影响颇大。


此版由布鲁诺瓦尔特演绎,索尼Great Performances系列。


第一次上传资源,做的不周到敬请见谅。学生党不能长期供源,在此提供网盘地址:

http://www.pipipan.com/file/28929826


请大家帮忙,谢谢!!!



代码
REM DATE 2006
TITLE "The Great Schubert Symphonies"
FILE "Bruno Walter - The Great Schubert Symphonies.Flac" WAVE
  TRACK 01 AUDIO
    TITLE "Symphony No.5 in B flat major, D 485 I. Allegro"
    PERFORMER "Bruno Walter, Columbia Symphony Orchestra"
    INDEX 01 00:00:00
  TRACK 02 AUDIO
    TITLE "Symphony No.5 in B flat major, D 485 II. Andante con moto"
    PERFORMER "Bruno Walter, Columbia Symphony Orchestra"
    INDEX 01 05:55:25
  TRACK 03 AUDIO
    TITLE "Symphony No.5 in B flat major, D 485 III. Menuetto. Allegro molto - Trio"
    PERFORMER "Bruno Walter, Columbia Symphony Orchestra"
    INDEX 01 16:34:40
  TRACK 04 AUDIO
    TITLE "Symphony No.5 in B flat major, D 485 IV. Allegro vivace"
    PERFORMER "Bruno Walter, Columbia Symphony Orchestra"
    INDEX 01 21:36:30
  TRACK 05 AUDIO
    TITLE "Symphony No.8 in B minor, D 759 'Unfinished' I. Allegro Moderato"
    PERFORMER "Bruno Walter, New York Philharmonic"
    INDEX 01 28:06:05
  TRACK 06 AUDIO
    TITLE "Symphony No.8 in B minor, D 759 'Unfinished' II.Andante con moto"
    PERFORMER "Bruno Walter, New York Philharmonic"
    INDEX 01 39:08:00
  TRACK 07 AUDIO
    TITLE "Overture to Leonore No.3, Op.72a (Beethoven)"
    PERFORMER "Bruno Walter, New York Philharmonic"
    INDEX 01 53:12:22



专辑曲目

1.Symphony No.5 in B flat major, D 485 I. Allegro
2.Symphony No.5 in B flat major, D 485 II. Andante con moto
3.Symphony No.5 in B flat major, D 485 III. Menuetto. Allegro molto - Trio
4.Symphony No.5 in B flat major, D 485 IV. Allegro vivace
5.Symphony No.8 in B minor, D 759 'Unfinished' I. Allegro Moderato
6.Symphony No.8 in B minor, D 759 'Unfinished' II.Andante con moto
7.Overture to Leonore No.3, Op.72a (Beethoven)

正在读取……

这里是其它用户补充的资源(我也要补充):

暂无补充资源
正在加载,请稍等...

点击查看所有64网友评论

 

(?) [公告]留口水、评论相关规则 | [活动]每日签到 轻松领取电驴经验

    小贴士:
  1. 类似“顶”、“沙发”之类没有营养的文字,对勤劳贡献的楼主来说是令人沮丧的反馈信息。
  2. 提问之前请再仔细看一遍楼主的说明,或许是您遗漏了。
  3. 勿催片。请相信驴友们对分享是富有激情的,如果确有更新版本,您一定能搜索到。
  4. 请勿到处挖坑绊人、招贴广告。既占空间让人厌烦,又没人会搭理,于人于己都无利。
  5. 如果您发现自己的评论不见了,请参考以上4条。