v

您的位置:VeryCD音乐华语音乐

音乐资源事务区


孙俪 -《小小的梦想》(Little Dream)EP[APE]

  • 状态: 精华资源
  • 摘要:
    发行时间2008年04月28日
    地区大陆
    语言普通话
  • 时间: 2008/06/28 20:28:46 发布 | 2008/07/07 09:09:13 更新
  • 分类: 音乐  华语音乐 

sinoloong

精华资源: 1

全部资源: 2

相关: 分享到新浪微博   转播到腾讯微博   分享到开心网   分享到人人   分享到QQ空间   订阅本资源RSS更新   美味书签  subtitle
该内容尚未提供权利证明,无法提供下载。
专辑中文名小小的梦想
专辑英文名Little Dream
歌手孙俪
资源格式APE
版本EP
发行时间2008年04月28日
地区大陆
语言普通话
简介

IPB Image
IPB Image

专辑介绍:

 孙俪在推出单曲《爱如空气》得到不错反响后,
2008年加入由殷文琦、何厚华、崔恕等亚洲金牌制作人连袂筹建的东方华采文化发展有限公司。在东方华采联合海润千易共同的帮助和支持下,孙俪首张专辑《小小的梦想》在历时半年多的制作后顺利诞生,无疑,这张专辑将正式宣布孙俪进军流行乐坛,同时,它也为孙俪在个人事业的多方位拓展上拉开了序幕。

 孙俪《小小的梦想》整张专辑收录了《小小的梦想》、《扯线木偶》、《沿途的风景》、《爱如空气》四首歌并追加收录了《小小的梦想》演奏曲,而专辑要传递给我们的理念便是:世界很大,梦想很小,但是正是因为千千万万个平凡人物的小小梦想,才有这个美好多彩的世界。
在追逐梦想的路上,或许会有阻碍,或许会有风浪,但是只要相信自己,只要坚持对生命的热爱,梦想终会实现。

经历了《爱如空气》的锻炼,孙俪在对音乐的感悟以及唱功方面也都有了很大程度上的提高,此番开唱,的确不能不让人耳边一惊。若说《爱如空气》是为电视剧《幸福像花儿一样》锦上添花,那么,《小小的梦想》就是为孙俪本人量体裁衣,其中的每一件衣服,孙俪穿着都足够合体,大家看着也足够美丽。

  而《小小的梦想》专辑封面之独特的视觉取景和主角全新的造型风格,也很难不让人眼前一亮。其最直观地体现了专辑所要阐述的 “梦想” 概念的同时,也狠而准地传递出现在的孙俪——个人的状态以及在有音乐参与她的人生之后的诸多变化。

  2008年4月28日值得期待,因为,我们盼望已久的孙俪首张大碟《小小的梦想》将正式面世。

  这是本人第一次发布资源,希望大家支持一下。这个APE是使用Foobar2000抓取CD得到的,CUE文件已包含在APE文件里。这个碟配套有一张DVD小小的梦想的MV,由于个人技术问题,我无法提取镜像出来,只能复制里面的VOB的文件出来,有需要的朋友请等待,我很快会放出来的。

由于我的电信ADSL宽带上传值较低,电信只给352 Kbps,而我不可能开完上传值,这样我就没法开网页什么了,一般情况我上传限制20KB/s,挂机状态就会开大速度,供源正常时间在晚上18点~23点,其他时间不定时开机。

  非常感谢我的朋友Gileong(gileong#tom.com)提供的正版CD。

CUE文件如下,把引用内的文字复制到记事本,保存,然后把后缀改成.cue就可以了。

引用

REM DATE 2008.4.28
PERFORMER "孙俪"
TITLE "小小的梦想"
FILE "孙俪.-.[小小的梦想].专辑.ape" WAVE
TRACK 01 AUDIO
TITLE "小小的梦想"
INDEX 01 00:00:00
TRACK 02 AUDIO
TITLE "扯线木偶"
INDEX 01 04:28:19
TRACK 03 AUDIO
TITLE "沿途风景"
INDEX 01 09:25:52
TRACK 04 AUDIO
TITLE "爱如空气"
INDEX 01 13:32:21
TRACK 05 AUDIO
TITLE "小小的梦想(演奏曲)"
INDEX 01 18:13:63

IPB Image



专辑曲目

01.小小的梦想
02.扯线木偶
03.沿途的风景
04.爱如空气
05.小小的梦想(演奏曲)

正在读取……

这里是其它用户补充的资源(我也要补充):

暂无补充资源
正在加载,请稍等...

点击查看所有61网友评论

 

(?) [公告]留口水、评论相关规则 | [活动]每日签到 轻松领取电驴经验

    小贴士:
  1. 类似“顶”、“沙发”之类没有营养的文字,对勤劳贡献的楼主来说是令人沮丧的反馈信息。
  2. 提问之前请再仔细看一遍楼主的说明,或许是您遗漏了。
  3. 勿催片。请相信驴友们对分享是富有激情的,如果确有更新版本,您一定能搜索到。
  4. 请勿到处挖坑绊人、招贴广告。既占空间让人厌烦,又没人会搭理,于人于己都无利。
  5. 如果您发现自己的评论不见了,请参考以上4条。