v

您的位置:VeryCD综艺新闻综合

综艺资源事务区


《梅妃》[京剧][李世济][剧场版全剧][Apollo][TVRip-MP4]

  • 状态: 精华资源
  • 摘要:
  • 时间: 2008/06/27 12:17:24 发布 | 2008/07/10 16:53:47 更新
  • 分类: 综艺  新闻综合 

yoyo030219

精华资源: 36

全部资源: 36

相关: 分享到新浪微博   转播到腾讯微博   分享到开心网   分享到人人   分享到QQ空间   订阅本资源RSS更新   美味书签  subtitle
该内容尚未提供权利证明,无法提供下载。
简介

中文名称: 梅妃
资源类型: TVRip-MP4
剧种: 京剧
制作组: Apollo
主演:

李世济 .... 梅妃
关小燕 .... 嫣红
郑岩 .... 高力士
陈真治 .... 安禄山

简介:
IPB Image

2008.06.15 CCTV-11频道播出。

《梅妃》是京剧传统保留剧目,讲述了帝王家的爱情悲剧,刻画了梅妃因杨玉环而失宠于唐明皇李隆基的寂寞情怀。全剧凸显了李隆基作为帝王的复杂人格和梅妃作为宫妃和女人的双重人性。

剧情介绍:
唐明皇令选美,得江采苹,赐号梅妃。日日歌舞欢宴,并特为之建梅亭。后明皇又得杨玉环,见异思迁。梅妃独居后宫,赋诗寄意、幽怨度日。安史乱起,长安陷落。明皇仓皇出逃,梅妃死于乱兵。

原始截图:
IPB Image

代码

General #0
Complete name                    : 梅妃[京剧][李世济][剧场版全剧][TVRip-MP4][Apollo].mp4
Format                           : MPEG-4
File size                        : 465 MiB
Duration                         : 1h 24mn
Overal bit rate                  : 773 Kbps

Video #0
Format/Info                      : Advanced Video Codec
Format profile                   : Main@L3.0
Format settings, CABAC           : Yes
Bit rate mode                    : VBR
Bit rate                         : 704 Kbps
Maximum bit rate                 : 1734 Kbps
Width                            : 640 pixels
Height                           : 480 pixels
Display aspect ratio             : 4/3
Frame rate mode                  : Constant
Frame rate                       : 25.000 fps
Stream size                      : 424 MiB

Audio #0
Format/Info                      : Advanced Audio Codec
Bit rate mode                    : VBR
Bit rate                         : 64.8 Kbps
Maximum bit rate                 : 82.3 Kbps
Channel(s)                       : 1 channel
Sampling rate                    : 44.1 KHz
Resolution                       : 16 bits
Stream size                      : 39.0 MiB

电视卡采集,DVD 格式录制,X264+AAC,MP4封装。
供的源比较多,带宽是有限的,我不一定能做到让你下得快,但一定让你下完整了,请大家耐心点
请戏曲同好下载后尽量不要移出 eMule 共享目录,帮助分享中国传统艺术,万分感谢!

正在读取……

这里是其它用户补充的资源(我也要补充):

暂无补充资源
正在加载,请稍等...

点击查看所有16网友评论

 

(?) [公告]留口水、评论相关规则 | [活动]每日签到 轻松领取电驴经验

    小贴士:
  1. 类似“顶”、“沙发”之类没有营养的文字,对勤劳贡献的楼主来说是令人沮丧的反馈信息。
  2. 提问之前请再仔细看一遍楼主的说明,或许是您遗漏了。
  3. 勿催片。请相信驴友们对分享是富有激情的,如果确有更新版本,您一定能搜索到。
  4. 请勿到处挖坑绊人、招贴广告。既占空间让人厌烦,又没人会搭理,于人于己都无利。
  5. 如果您发现自己的评论不见了,请参考以上4条。