v

您的位置:VeryCD音乐古典音乐

音乐资源事务区


Travnicek Quartet 特拉夫尼切克四重奏组 -《德沃夏克第12(美国四重奏)、13号弦乐四重奏》(Dvorak: String Quartet No. 12 in F "American". Op 96 / String Quartet No. 13 in G, Op. 106)庆祝上海古典CD坊倒闭重新申精[FLAC]

  • 状态: 精华资源
  • 摘要:
    古典类型室内乐
    发行时间1990年
  • 时间: 2013/04/07 12:32:31 发布 | 2014/03/03 12:33:25 更新
  • 分类: 音乐  古典音乐 

kalasnikf

精华资源: 359

全部资源: 362

相关: 分享到新浪微博   转播到腾讯微博   分享到开心网   分享到人人   分享到QQ空间   订阅本资源RSS更新   美味书签  subtitle
该内容尚未提供权利证明,无法提供下载。
专辑英文名Dvorak: String Quartet No. 12 in F "American". Op 96 / String Quartet No. 13 in G, Op. 106
专辑中文名德沃夏克第12(美国四重奏)、13号弦乐四重奏
古典类型室内乐
资源格式FLAC
版本庆祝上海古典CD坊倒闭重新申精
发行时间1990年
地区美国
语言英语
简介

IPB Image

Travnicek Quartet 是以斯洛伐克小提琴家Jablokov为首的东欧室内乐组合,Jablokov的老师就是大名鼎鼎的奥伊斯特拉赫。关于这一组合资料甚少。但是他们的“美国四重奏”却是《音乐圣经》里的推荐版本。

引用
喜大普奔,淘宝上的上海古典cd坊倒闭啦!
这个无良的家伙整天从墨涂涂等各种论坛下了无损资源后刻盘倒卖牟利,以至于很多爱乐者不再愿意发碟了,我也没了在VeryCD发碟的动力,以至于长时间没来。前几天闻知此黑店已倒闭,特此重发以前自己抓轨的碟


CUE如下

代码
PERFORMER "Travnicek Quartet"
TITLE "Dvorak Quartet 12 and 13"
FILE "Travnicek Quartet - Dvorak Quartet 12 and 13.flac" WAVE
  TRACK 01 AUDIO
    TITLE "Allegro ma non troppo"
    INDEX 01 00:00:00
  TRACK 02 AUDIO
    TITLE "Lento"
    INDEX 01 07:04:10
  TRACK 03 AUDIO
    TITLE "Molto vivace"
    INDEX 01 14:27:10
  TRACK 04 AUDIO
    TITLE "Finale, vivace, ma non troppo"
    INDEX 01 18:22:15
  TRACK 05 AUDIO
    TITLE "Allegro moderato"
    INDEX 01 24:00:00
  TRACK 06 AUDIO
    TITLE "Adagio, ma non troppo"
    INDEX 01 34:42:12
  TRACK 07 AUDIO
    TITLE "Molto vivace"
    INDEX 01 45:09:10
  TRACK 08 AUDIO
    TITLE "Finale Andante sostenuto"
    INDEX 01 52:23:07


引用
你们都去看回复的3楼!!!!一定要看!!!!我只能帮你们到这了……(还不领悟的真是没救了)



专辑曲目

01.Allegro ma non troppo
02.Lento
03.Molto vivace
04.Finale, vivace, ma non troppo
05.Allegro moderato
06.Adagio, ma non troppo
07.Molto vivace
08.Finale Andante sostenuto

正在读取……

这里是其它用户补充的资源(我也要补充):

暂无补充资源
正在加载,请稍等...

点击查看所有95网友评论

 

(?) [公告]留口水、评论相关规则 | [活动]每日签到 轻松领取电驴经验

    小贴士:
  1. 类似“顶”、“沙发”之类没有营养的文字,对勤劳贡献的楼主来说是令人沮丧的反馈信息。
  2. 提问之前请再仔细看一遍楼主的说明,或许是您遗漏了。
  3. 勿催片。请相信驴友们对分享是富有激情的,如果确有更新版本,您一定能搜索到。
  4. 请勿到处挖坑绊人、招贴广告。既占空间让人厌烦,又没人会搭理,于人于己都无利。
  5. 如果您发现自己的评论不见了,请参考以上4条。