v

您的位置:VeryCD音乐华语音乐

音乐资源事务区


杨钰莹 -《遇江南》[FLAC]

  • 状态: 精华资源
  • 摘要:
    音乐风格流行
    发行时间2012年12月27日
    地区大陆
    语言普通话
  • 时间: 2013/01/04 21:03:10 发布 | 2013/01/08 17:44:20 更新
  • 分类: 音乐  华语音乐 

[该用户已屏蔽]

精华资源: 307

全部资源: 313

相关: 分享到新浪微博   转播到腾讯微博   分享到开心网   分享到人人   分享到QQ空间   订阅本资源RSS更新   美味书签  subtitle
该内容尚未提供权利证明,无法提供下载。
专辑中文名遇江南
歌手杨钰莹
音乐风格流行
资源格式FLAC
发行时间2012年12月27日
地区大陆
语言普通话
简介

IPB Image

专辑介绍:

2011年四月,钰莹与朋友们相约踏青,在踏足江南的刹那,似乎所有的前世今生都如梦初醒,像去到很远的远方,又像是回到心底的故乡。那里的一朵花可以唤醒整个春天,一只蝴蝶教人想起生死相许的爱情,一座桥牵连着生生世世,一阕诗就能带你轮回穿越。青春韶华的星光璀璨,十年前的悄然淡出,这一切在江南春天的色彩中静静晕染,渐渐柳暗花明。她像青草一样呼吸,像花朵一样微笑,像蝴蝶一样轻盈自由。

此时,旁人眼中,踟蹰雨巷的杨钰莹,是那个丁香般结着忧愁的姑娘;月下西子湖畔的杨钰莹,是浓妆淡抹总相宜的古典美人;小桥流水间的杨钰莹,是娇俏可人的邻家女孩。她在江南的底色中,就是那样的宜人,让人想起生命中所有美好的事。阳光透过江南,明亮了她的眼睛。坐在杨柳岸,看云从飞鸟翅膀般的屋檐上悠然升起。年华在云水之间,流淌出心底的歌谣。只不过是一个转身,回首已是千山万水。但,沧桑一掠而过,她的眉目之间依然清朗如画。钰莹和江南,他们遇见彼此,彼此心照。于是,江南被幸福地歌唱着,而那朵飘向春天的云,她的路途从江南开始,随风化雨,滋润生命,收获了丰美的果实。

也许,我们每个人的心中,都有一个江南。我们去那里,是为了寻找什么,也为了忘记什么。我们遇见陌上花开,遇见烟雨蒙蒙,走过山重水复,走过清风明月,不过是遇见、走过自己的生命。当音乐响起,世界安静下来。我们静静分享这果实的恬美愉悦,静静的聆听《遇江南》,在钰莹清新恬淡的歌声中,遇见最想念的那个人、那个地方,那段最好的时光。

IPB Image

IPB Image

GoodMusic.CC 邂逅好音乐 您的随身音乐杂志·

GoodMusic.CC 原创资源,转载请注明!

新浪微博地址:http://weibo.com/musionshock

敬请关注,分享交流





此砖FLAC收藏版下载地址请猛击此处:

http://GoodMusic.CC/?p=1618




神马是收藏版? 请猛击此处:关于MP3,你不知道的事!

引用
REM DATE 2012
PERFORMER "杨钰莹"
TITLE "遇江南"
FILE "杨钰莹.-.[遇江南].专辑.(FLAC).flac" WAVE
TRACK 01 AUDIO
TITLE "可遇"
INDEX 01 00:00:00
TRACK 02 AUDIO
TITLE "你若安好 便是晴天"
INDEX 00 04:38:70
INDEX 01 04:40:70
TRACK 03 AUDIO
TITLE "断恋"
INDEX 00 08:16:65
INDEX 01 08:18:65
TRACK 04 AUDIO
TITLE "遇江南"
INDEX 00 12:19:70
INDEX 01 12:21:70
TRACK 05 AUDIO
TITLE "想起你的好"
INDEX 00 17:22:14
INDEX 01 17:24:14
TRACK 06 AUDIO
TITLE "如梦令"
INDEX 00 21:44:32
INDEX 01 21:46:32
TRACK 07 AUDIO
TITLE "最美的相遇"
INDEX 00 25:55:63
INDEX 01 25:57:63
TRACK 08 AUDIO
TITLE "我在看你"
INDEX 00 29:56:58
INDEX 01 29:58:58
TRACK 09 AUDIO
TITLE "我在春天等你"
INDEX 00 33:57:58
INDEX 01 33:59:58
TRACK 10 AUDIO
TITLE "最好的时光"
INDEX 00 37:39:27
INDEX 01 37:41:27



专辑曲目

01.可遇
02.你若安好 便是晴天
03.断恋
04.遇江南
05.想起你的好
06.如梦令
07.最美的相遇
08.我在看你
09.我在春天等你
10.最好的时光

正在读取……

这里是其它用户补充的资源(我也要补充):

暂无补充资源
正在加载,请稍等...

点击查看所有584网友评论

 

(?) [公告]留口水、评论相关规则 | [活动]每日签到 轻松领取电驴经验

    小贴士:
  1. 类似“顶”、“沙发”之类没有营养的文字,对勤劳贡献的楼主来说是令人沮丧的反馈信息。
  2. 提问之前请再仔细看一遍楼主的说明,或许是您遗漏了。
  3. 勿催片。请相信驴友们对分享是富有激情的,如果确有更新版本,您一定能搜索到。
  4. 请勿到处挖坑绊人、招贴广告。既占空间让人厌烦,又没人会搭理,于人于己都无利。
  5. 如果您发现自己的评论不见了,请参考以上4条。