v

您的位置:VeryCD音乐古典音乐

音乐资源事务区


Earl Wild 厄尔·怀尔德 -《格里格钢琴协奏曲、圣桑第二钢琴协奏曲、李斯特匈牙利幻想曲》(Grieg,Säint-Saens & Liszt Piano Concertos)Chesky CD50[FLAC]

  • 状态: 精华资源
  • 摘要:
    古典类型协奏曲
    发行时间1991年
  • 时间: 2012/11/05 23:28:23 发布 | 2012/11/06 10:38:27 更新
  • 分类: 音乐  古典音乐 

kalasnikf

精华资源: 359

全部资源: 362

相关: 分享到新浪微博   转播到腾讯微博   分享到开心网   分享到人人   分享到QQ空间   订阅本资源RSS更新   美味书签  subtitle
该内容尚未提供权利证明,无法提供下载。
专辑英文名Grieg,Säint-Saens & Liszt Piano Concertos
专辑中文名格里格钢琴协奏曲、圣桑第二钢琴协奏曲、李斯特匈牙利幻想曲
古典类型协奏曲
资源格式FLAC
版本Chesky CD50
发行时间1991年
地区美国
语言英语
简介

IPB Image
专辑介绍


引用
欢迎大家移步我在ED2000 的 资源列表 里面都是各种原因无法在VeryCD加精的好资源http://www.ed2000.com/FileList.asp?UserEmail=kalasnikf@sina.com


Earl Wild (厄尔·怀尔德), 1915年出生于美国匹兹堡,目前住在俄亥俄。怀尔德六岁进入匹兹堡音乐学校跟随沃克学习钢琴,后来分别向詹森、佩特里与多古劳学习,音乐风格深受霍夫曼、列文涅与拉赫曼尼诺夫的影响。1936年以前,怀尔德都在匹兹堡交响乐团担任键盘乐手,后来转到NBC交响乐团。托斯卡尼尼于1942年11月1日举办个人第一场全美国作品音乐会时,他要求乐团键盘手怀尔德演出盖希文《蓝色狂想曲》。怀尔德因为这场音乐会声名大噪并被视为盖希文专家,但是这对他来说并不公平。后来怀尔德进入美国广播公司工作二十二年,而他也在这些年里建立成功的个人独奏事业,并到世界各地巡回演出,创下连续到白宫为六任美国总统演出的记录,1986年得到匈牙利李斯特奖章,1983年起成为卡内基麦伦大学驻校艺术家。长久以来,怀尔德的盖希文、柴可夫斯基与拉赫曼尼诺夫作品改编曲就一直吸引爱乐者的目光。虽然怀尔德以改编李斯特等浪漫派作曲家的作品闻名,但是他也录制过许多风格迥异的作品,如:亨德密特、梅诺第、亨策与梅特纳等。


引用
欢迎大家移步我在ED2000 的 资源列表 里面都是各种原因无法在VeryCD加精的好资源http://www.ed2000.com/FileList.asp?UserEmail=kalasnikf@sina.com


IPB Image

Chesky 切斯基唱片公司
IPB Image
美国唱片公司。1978年由年轻的音乐家戴维·切斯基(David Chesky)创建。切斯基最初在哥伦比亚唱片公司供职,但一直感到没有实现自己的价值,于是他与他的弟弟诺曼(Norman)一起,从迈阿密到纽约,创办了这一公司。他们的宗旨是追求完美的音乐和高保真的唱片,以及最前沿的技术,但很快,认识告诉他们,听众和艺术家并不一定需要这些,于是他们改变宗旨,追求唱片的与众不同和独特性。1986年,切斯基有幸结识钢琴家怀尔德(Earl Wild),他不仅提出了许多关于录音和演奏方面的建议,而且让他听到了一盘他在《读者文摘》系列中的录音母带,这给他留下了深刻的印象,他们立即安排再版了这一录音的高保真唱片。从此他们开始以新的技术,广泛地出版《读者文摘》和 RCA 的古典音乐历史录音,并取得了相当的成功。
IPB Image
此后切斯基不再专注于古典音乐,开始向其他领域拓展。他们录制了爵士小提琴手弗里戈(Johnny Frigo)等人的作品,以及拉丁美洲演奏家的作品,在这些领域得到了听众的认可。
  切斯基通过不断追踪和应用新的技术,来保持唱片的品质。他们在美国第一个使用 96kHz/24 bit 数字录音出品 DVD 产品,在DVD 领域有相当的名气。1997年,他们又独立出一个针对儿童的部门 Chesky Records Kids,出品儿童音乐教育等方面的产品。

代码
REM GENRE Classical
REM DATE 1991
REM DISCID 68102207
REM COMMENT "ExactAudioCopy v1.0b3"
PERFORMER "Earl Wild"
TITLE "Grieg & Saint-Sa.ns - Piano Concertos - Chesky 1991"
FILE "Earl.Wild. RPO.RVSO.-.[Grieg.Saint-Saens.Liszt.Piano.Concertos(Chesky CD50)].专辑.(FLAC).flac" WAVE
  TRACK 01 AUDIO
    TITLE "Grieg - Concerto in A Minor - Allegro Molto Moderato"
    PERFORMER "Earl Wild"
    INDEX 00 00:00:00
    INDEX 01 00:00:37
  TRACK 02 AUDIO
    TITLE "Grieg - Concerto in A Minor - Adagio"
    PERFORMER "Earl Wild"
    INDEX 01 13:06:25
  TRACK 03 AUDIO
    TITLE "Grieg - Concerto in A Minor - .Allegro Moderato Molto e Marcato"
    PERFORMER "Earl Wild"
    INDEX 01 19:12:25
  TRACK 04 AUDIO
    TITLE "Saint-Sa.ns - Concerto No 2 in G Minor - Andante Sustenuto"
    PERFORMER "Earl Wild"
    INDEX 01 29:15:37
  TRACK 05 AUDIO
    TITLE "Saint-Sa.ns - Concerto No 2 in G Minor - Allegro Scherzando"
    PERFORMER "Earl Wild"
    INDEX 00 40:37:43
    INDEX 01 40:40:20
  TRACK 06 AUDIO
    TITLE "Saint-Sa.ns - Concerto No 2 in G Minor - Presto"
    PERFORMER "Earl Wild"
    INDEX 00 46:14:70
    INDEX 01 46:19:12
  TRACK 07 AUDIO
    TITLE "Liszt - Hungarian Fantasy"
    PERFORMER "Earl Wild"
    INDEX 00 52:48:62
    INDEX 01 52:55:37



专辑曲目

01.Grieg - Concerto in A Minor - Allegro Molto Moderato
02.Grieg - Concerto in A Minor - Adagio
03.Grieg - Concerto in A Minor - .Allegro Moderato Molto e Marcato
04.Saint-Saens - Concerto No 2 in G Minor - Andante Sustenuto
05.Saint-Saens - Concerto No 2 in G Minor - Allegro Scherzando
06.Saint-Saens - Concerto No 2 in G Minor - Presto
07.Liszt - Hungarian Fantasy

正在读取……

这里是其它用户补充的资源(我也要补充):

暂无补充资源
正在加载,请稍等...

点击查看所有154网友评论

 

(?) [公告]留口水、评论相关规则 | [活动]每日签到 轻松领取电驴经验

    小贴士:
  1. 类似“顶”、“沙发”之类没有营养的文字,对勤劳贡献的楼主来说是令人沮丧的反馈信息。
  2. 提问之前请再仔细看一遍楼主的说明,或许是您遗漏了。
  3. 勿催片。请相信驴友们对分享是富有激情的,如果确有更新版本,您一定能搜索到。
  4. 请勿到处挖坑绊人、招贴广告。既占空间让人厌烦,又没人会搭理,于人于己都无利。
  5. 如果您发现自己的评论不见了,请参考以上4条。