v

您的位置:VeryCD音乐古典音乐

音乐资源事务区


Pierre Fournier 富尼埃 & Hermann Scherchen 舍尔辛 -《德沃夏克大提琴协奏曲/勃拉姆斯第三交响曲》(Dvorak Cello Concerto/Brahms Symphony No. 3)1962年卢加诺现场版[APE]

  • 状态: 精华资源
  • 摘要:
    古典类型协奏曲
    发行时间2000年
  • 时间: 2012/10/28 21:35:52 发布 | 2012/11/03 22:50:25 更新
  • 分类: 音乐  古典音乐 

kalasnikf

精华资源: 359

全部资源: 362

相关: 分享到新浪微博   转播到腾讯微博   分享到开心网   分享到人人   分享到QQ空间   订阅本资源RSS更新   美味书签  subtitle
该内容尚未提供权利证明,无法提供下载。
专辑英文名Dvorak Cello Concerto/Brahms Symphony No. 3
专辑中文名德沃夏克大提琴协奏曲/勃拉姆斯第三交响曲
古典类型协奏曲
资源格式APE
版本1962年卢加诺现场版
发行时间2000年
地区瑞士
语言英语
简介

IPB Image

专辑介绍

引用
欢迎大家移步我在ED2000 的 资源列表 里面都是各种原因无法在VeryCD加精的好资源 http://www.ed2000.com/FileList.asp?UserEma...sina.com


引用



该专辑收录的是1962年富尼埃在瑞士卢加诺和舍尔辛合作的音乐会现场录音之一,协奏乐团为瑞士意大利语区管弦乐团(Orchestra della Svizzera Italiana),最早收录于Tahra公司 428-29 号唱片。此处为Aura公司节选这两首曲目的再版。

该专辑中德沃夏克大协的第一乐章相较于富尼埃-塞尔版要快,而舍尔辛指挥的乐团则颇有些“喧宾夺主”——特别是首席单簧管清亮的乐声。富尼埃发挥不错,表现出了很多大提琴家未能表现的细节,但是和商业录音相比尚有些许差距,中间也有一些小错误。

舍尔辛的勃拉姆斯第三重点在第二乐章上,他把自己的情感尽可能的倾注于其中展现,演奏时间用了足足10分21秒。超过了蒙都(Monteux 7分40)和鲍尔特(Boult 8分33),甚至比一向凝重的巴比罗利维也纳爱乐版(9分04)还要长。而之后的谐谑曲和终章却是干净利落,完全让人感受不到他已经71岁高龄。

代码
Exact Audio Copy V0.99 prebeta 4 from 23. January 2008

Отчёт EAC об извлечении, выполненном 30. декабря 2008, 10:27

Dvorak Cello Concerto, Op. 104; Brahms Symphony No.3, Op. 90 - Hermann Scerchen & Pierre Fournie

Дисковод: _NEC    DVD_RW ND-4570A   Adapter: 0  ID: 0

Режим чтения                 : Достоверность
Использование точного потока : Да
Отключение кэша аудио        : Да
Использование указателей C2  : Нет

Коррекция смещения при чтении                     : 48
Способность читать области Lead-in и Lead-out     : Нет
Заполнение пропущенных сэмплов тишиной            : Да
Удаление блоков с тишиной в начале и конце        : Нет
При вычислениях CRC использовались нулевые сэмплы : Нет
Интерфейс                                         : Встроенный Win32-интерфейс для Win NT/2000

Выходной формат : Внутренние WAV-операции
Формат сэмплов  : 44.100 Гц; 16 бит; стерео


TOC извлечённого CD

     Трек |   Старт  | Длительность | Начальный сектор | Конечный сектор
    ---------------------------------------------------------------------
       1  |  0:00.00 |   14:25.20   |           0      |      64894      
       2  | 14:25.20 |   11:36.68   |       64895      |     117162      
       3  | 26:02.13 |   12:10.15   |      117163      |     171927      
       4  | 38:12.28 |    9:15.20   |      171928      |     213572      
       5  | 47:27.48 |   10:25.72   |      213573      |     260519      
       6  | 57:53.45 |    5:51.43   |      260520      |     286887      
       7  | 63:45.13 |    9:54.62   |      286888      |     331499      


Характеристики диапазона извлечения и сообщения об ошибках

Выбранный диапазон

     Имя файла Brahms - Dvorak - Scherchen.wav

     Пиковый уровень 100.0 %
     Качество диапазона 100.0 %
     CRC копии 6D914905
     Копирование... OK

Ошибок не произошло

Конец отчёта


代码
PERFORMER "Hermann Scherchen & Pierre Fournier"
TITLE "Dvorak Cello Concerto, Brahms Symphony No.3"
FILE "Scerchen.&.Fournier.-.[Dvorak.Cello.Concerto;Brahms.Symphony.No.3.1962.Live.Lugano].专辑.(APE).ape" WAVE
  TRACK 01 AUDIO
    TITLE "Cello Concerto Op. 104, I. Allegro"
    PERFORMER "Dvorak"
    INDEX 01 00:00:00
  TRACK 02 AUDIO
    TITLE "Cello Concerto Op. 104, II. Adagio ma non troppo"
    PERFORMER "Dvorak"
    INDEX 01 14:25:20
  TRACK 03 AUDIO
    TITLE "Cello Concert Op. 104, III. Allegro moderato"
    PERFORMER "Dvorak"
    INDEX 01 26:02:13
  TRACK 04 AUDIO
    TITLE "Symphony No. 3 Op. 90, I. Allegro con brio"
    PERFORMER "Brahms"
    INDEX 01 38:12:28
  TRACK 05 AUDIO
    TITLE "Symphony No. 3 Op. 90, II. Andante"
    PERFORMER "Brahms"
    INDEX 01 47:27:48
  TRACK 06 AUDIO
    TITLE "Symphony No. 3 Op. 90, III. Scherzo (Poco Allegretto)"
    PERFORMER "Brahms"
    INDEX 01 57:53:45
  TRACK 07 AUDIO
    TITLE "Symphony No. 3 Op. 90, IV. Allegro"
    PERFORMER "Brahms"
    INDEX 01 63:45:13



专辑曲目

01.Cello Concerto Op. 104, I. Allegro
02.Cello Concerto Op. 104, II. Adagio ma non troppo
03.Cello Concert Op. 104, III. Allegro moderato
04.Symphony No. 3 Op. 90, I. Allegro con brio
05.Symphony No. 3 Op. 90, II. Andante
06.Symphony No. 3 Op. 90, III. Scherzo (Poco Allegretto)
07.Symphony No. 3 Op. 90, IV. Allegro

正在读取……

这里是其它用户补充的资源(我也要补充):

暂无补充资源
正在加载,请稍等...

点击查看所有313网友评论

 

(?) [公告]留口水、评论相关规则 | [活动]每日签到 轻松领取电驴经验

    小贴士:
  1. 类似“顶”、“沙发”之类没有营养的文字,对勤劳贡献的楼主来说是令人沮丧的反馈信息。
  2. 提问之前请再仔细看一遍楼主的说明,或许是您遗漏了。
  3. 勿催片。请相信驴友们对分享是富有激情的,如果确有更新版本,您一定能搜索到。
  4. 请勿到处挖坑绊人、招贴广告。既占空间让人厌烦,又没人会搭理,于人于己都无利。
  5. 如果您发现自己的评论不见了,请参考以上4条。