v

您的位置:VeryCD音乐古典音乐

音乐资源事务区


Karajan 卡拉扬 & BPO 柏林爱乐乐团 -《莫扎特第29交响曲/柴可夫斯基第六交响曲“悲怆”》(Mozart Symphony No.29/Tchaikovsky Symphony No.6)1988东京现场版(Tokyo Live)[APE]

  • 状态: 精华资源
  • 摘要:
    古典类型交响曲
    发行时间2008年
  • 时间: 2012/10/11 08:45:33 发布 | 2012/10/12 12:05:49 更新
  • 分类: 音乐  古典音乐 

kalasnikf

精华资源: 359

全部资源: 362

相关: 分享到新浪微博   转播到腾讯微博   分享到开心网   分享到人人   分享到QQ空间   订阅本资源RSS更新   美味书签  subtitle
该内容尚未提供权利证明,无法提供下载。
专辑英文名Mozart Symphony No.29/Tchaikovsky Symphony No.6
专辑中文名莫扎特第29交响曲/柴可夫斯基第六交响曲“悲怆”
古典类型交响曲
资源格式APE
版本1988东京现场版(Tokyo Live)
发行时间2008年
地区日本,德国
简介

IPB Image

专辑介绍

引用
欢迎大家移步我在ED2000 的 资源列表 里面都是各种原因无法在VeryCD加精的好资源 http://www.ed2000.com/FileList.asp?UserEma...sina.com


转自:指挥大师的终极艺术-卡拉扬在东京最后的演奏会

指挥大师的终极艺术-卡拉扬在东京最后的演奏会

奥地利指挥大师赫伯特.冯.卡拉扬一直对日本-这个美丽的东方国家充满了好感!在他整个指挥生涯中曾先后11次到日本访问演出!其中有9次是自己带着像维也纳爱乐和柏林爱乐乐团这样的世界一流演奏团体。从最早的1957年率维也纳爱乐乐团访问日本到他生命的最晚年1988年在东京的最后演奏会时隔了三十年。要知道日本是一个保守传统的国家,尤其是在古典音乐表演艺术方面。日本听众和评论家推祟的是像托斯卡尼尼、富特文格勒和克伦帕勒这种指挥风格的演奏。并在他们的头衔上冠以巨匠的字样。而卡拉扬当时只能被称为名手之类的。可见卡拉扬并非是一到日本就被认可的,有一次他去日本开音乐会,他的自弹自挥的巴赫第三号勃兰登堡协奏曲演完竟然无人鼓掌,第二天报刊上恶评如潮、著名评论家在论评卡拉扬的指挥时用了表面化、程式化、没有进入到作曲家的内心世界等评语!但卡拉扬对待艺术的态度是极其严肃的,在他其后的访问日本演出使的日本的评论慢慢的转变了,听众和评论家的风向开始变化了,从批评苛求转为一味赞美!我想卡拉扬这个唯意志论者不可能去使自己的艺术表演去迎合听众,只能是他用强大的意志贯穿于音乐作品中去征服观众。在卡拉扬的晚年,日本人开出了最高的价码、最高的礼遇去诱使卡拉扬访问演出!这三张唱片分别取之1988年5月2日、5月4日、5月5日在东京三得利音乐厅的实况演出录音!当年这几场音乐会的票价最低是500美金!人们明白在历经多次脊椎手术的卡拉扬大限将至,一位教授对他的学生们说:你们要永远记住这种声音,这种世界上最美的声音即将消失,再也无法重现!

第一张唱片的内容是莫扎特的第29交响曲和柴可夫斯基的第六交响曲。卡拉扬在解读那首莫扎特第29交响曲时,和通常我们在唱片中听到是完全不一样的,卡拉扬用简单直接的手法,把这首看似简单的交响曲表现的音调如歌,那些美妙的旋律直接由卡拉扬心中流出,流进听众心里那样,完全没有以往卡拉扬的莫扎特交响曲唱片里那种僵硬、华丽、不近人情的表述方式。我坚信晚年的卡拉扬是回归莫扎特的那种内心欢乐的。而柴可夫斯基的悲怆交响曲则充满了巨大的热情。卡拉扬一生在录音室灌制过八次,这些唱片我都有,在没听这个东京现场前,我认为卡拉扬与英国的爱乐管弦乐团和与维也纳爱乐乐团的那次立体声数码录音为最佳。卡拉扬一生反复演奏、灌录柴可夫斯基的交响曲次数超过他的德奥同胞的交响曲!依我看是柴可夫斯基作品中那种管弦乐技法充满了色彩绚丽和奢华的表演、浪漫的热情和激情之间巨大的戏剧冲突深深吸引着卡拉扬,令他乐此不疲!我坚持认为卡拉扬棒下的柴可夫斯基交响曲胜过穆拉文斯基的,老穆的那些突然炸响的铜管令我心脏病发作!经过反复聆听,东京的这个录音对表现即将来临的死亡、作曲家的心境是超一流的、与理查.施特劳斯的交响诗《死与变形》中的死亡描写有着异曲同工之妙。

IPB Image

引用
欢迎大家移步我在ED2000 的 资源列表 里面都是各种原因无法在VeryCD加精的好资源 http://www.ed2000.com/FileList.asp?UserEma...sina.com


代码
REM GENRE Classical
REM DATE 2008
REM DISCID 7E11290A
REM COMMENT "ExactAudioCopy v0.99pb4"
PERFORMER "Herbert Von Karajan: Berlin Philharmonic Orchestra"
TITLE "Karajan Last Concert 1988 III. Mozart : Symphony No. 29 & Tchaikovsky : Symph..."
FILE "CDImage.ape" WAVE
  TRACK 01 AUDIO
    TITLE "1.Applause"
    PERFORMER "Herbert Von Karajan: Berlin Philharmonic Orchestra"
    INDEX 01 00:00:00
  TRACK 02 AUDIO
    TITLE "2.Mozart : Symphony No. 29 in A major, K. 201 (186a) - I. Allegro moderato"
    PERFORMER "Herbert Von Karajan: Berlin Philharmonic Orchestra"
    INDEX 01 00:18:53
  TRACK 03 AUDIO
    TITLE "3.Mozart : Symphony No. 29 in A major, K. 201 (186a) - II. Andante"
    PERFORMER "Herbert Von Karajan: Berlin Philharmonic Orchestra"
    INDEX 01 07:43:23
  TRACK 04 AUDIO
    TITLE "4.Mozart : Symphony No. 29 in A major, K. 201 (186a) - III. Menuetto - Trio -..."
    PERFORMER "Herbert Von Karajan: Berlin Philharmonic Orchestra"
    INDEX 01 14:07:14
  TRACK 05 AUDIO
    TITLE "5.Mozart : Symphony No. 29 in A major, K. 201 (186a) - IV. Allegro con spirito"
    PERFORMER "Herbert Von Karajan: Berlin Philharmonic Orchestra"
    INDEX 01 18:26:17
  TRACK 06 AUDIO
    TITLE "6.Applause"
    PERFORMER "Herbert Von Karajan: Berlin Philharmonic Orchestra"
    INDEX 01 23:30:43
  TRACK 07 AUDIO
    TITLE "7.Tchaikovsky : Symphony No. 6 in B minor, Op. 74 'Pathétique' - I. Adagio- ..."
    PERFORMER "Herbert Von Karajan: Berlin Philharmonic Orchestra"
    INDEX 01 23:44:69
  TRACK 08 AUDIO
    TITLE "8.Tchaikovsky : Symphony No. 6 in B minor, Op. 74 'Pathétique' - II. Allegro..."
    PERFORMER "Herbert Von Karajan: Berlin Philharmonic Orchestra"
    INDEX 01 43:03:26
  TRACK 09 AUDIO
    TITLE "9.Tchaikovsky : Symphony No. 6 in B minor, Op. 74 'Pathétique' - III. Allegr..."
    PERFORMER "Herbert Von Karajan: Berlin Philharmonic Orchestra"
    INDEX 01 52:16:34
  TRACK 10 AUDIO
    TITLE "10.Tchaikovsky : Symphony No. 6 in B minor, Op. 74 'Pathétique' - IV. Finale..."
    PERFORMER "Herbert Von Karajan: Berlin Philharmonic Orchestra"
    INDEX 01 61:30:64


代码
Exact Audio Copy V0.99 prebeta 4 from 23. January 2008

EAC 抓取日志文件从12. 十二月 2008, 7:43

Herbert Von Karajan: Berlin Philharmonic Orchestra / Karajan Last Concert 1988 III. Mozart : Symphony No. 29 & Tchaikovsky : Symphony No. 6 "Pathétique"

使用驱动器  :PLEXTOR CD-R   PX-230A   Adapter: 0  ID: 1

读取模式     : 保护
使用精确流   : 是
废除音频缓冲 : 是
使用 C2 指针 : 否

读取偏移校正                   : 738
读取 Lead-In 和 Lead-Out       : 否
用静音填充抓取中丢失偏移的采样 : 是
去除首尾静音块                 : 否
在 CRC 计算中使用了空样本      : 否
已用接口                       : Win NT 及 2000 本地 Win32 接口

所用输出格式 : Monkey's Audio Lossless Encoder v3.99 DLL
样本格式     : Fast Lossless Compression


被抓轨 CD 的 TOC

     音轨 |   开始   |   长度   | 起始扇区 | 结尾扇区
    --------------------------------------------------
       1  |  0:00.00 |  0:18.53 |       0  |    1402  
       2  |  0:18.53 |  7:24.45 |    1403  |   34747  
       3  |  7:43.23 |  6:23.66 |   34748  |   63538  
       4  | 14:07.14 |  4:19.03 |   63539  |   82966  
       5  | 18:26.17 |  5:04.26 |   82967  |  105792  
       6  | 23:30.43 |  0:14.26 |  105793  |  106868  
       7  | 23:44.69 | 19:18.32 |  106869  |  193750  
       8  | 43:03.26 |  9:13.08 |  193751  |  235233  
       9  | 52:16.34 |  9:14.30 |  235234  |  276813  
      10  | 61:30.64 | 11:42.11 |  276814  |  329474  


范围状态及错误

已选择范围

     文件名 G:\ape\新建文件夹\Herbert Von Karajan  Berlin Philharmonic Orchestra - Karajan Last Concert 1988 III. Mozart   Symphony No. 29 & Tchaikovsky   Symphony No. 6  Pathétique.ape

     峰值电平 100.0 %
     范围质量 100.0 %
     复制 CRC F60257EB
     复制成功

没有错误发生


AccurateRip 概要

音轨  1  数据库中未见
音轨  2  数据库中未见
音轨  3  数据库中未见
音轨  4  数据库中未见
音轨  5  数据库中未见
音轨  6  数据库中未见
音轨  7  数据库中未见
音轨  8  数据库中未见
音轨  9  数据库中未见
音轨 10  数据库中未见

没有任何音轨出现在 AccurateRip 数据库中

状态报告结尾



专辑曲目

モーツァルト:交响曲 第29番 イ长调 K.201(186a)
1. 拍手:Applause
2. 第1楽章: Allegro moderato
3. 第2楽章: Andante
4. 第3楽章: Menuetto - Trio - Menuetto
5. 第4楽章: Allegro con spirito

チャイコフスキー:交响曲 第6番 ロ短调 作品74《悲愴》
6. 拍手:Applause
7. 第1楽章: Adagio - Allegro non troppo - Andante - Moderato mosso - Andante - Moderato assai - Allegro vivo - Andante come prima - Andante mosso
8. 第2楽章: Allegro con grazia
9. 第3楽章: Allegro molto vivace
10. 第4楽章: Finale. Adagio lamentoso - Andante

正在读取……

这里是其它用户补充的资源(我也要补充):

暂无补充资源
正在加载,请稍等...

点击查看所有300网友评论

 

(?) [公告]留口水、评论相关规则 | [活动]每日签到 轻松领取电驴经验

    小贴士:
  1. 类似“顶”、“沙发”之类没有营养的文字,对勤劳贡献的楼主来说是令人沮丧的反馈信息。
  2. 提问之前请再仔细看一遍楼主的说明,或许是您遗漏了。
  3. 勿催片。请相信驴友们对分享是富有激情的,如果确有更新版本,您一定能搜索到。
  4. 请勿到处挖坑绊人、招贴广告。既占空间让人厌烦,又没人会搭理,于人于己都无利。
  5. 如果您发现自己的评论不见了,请参考以上4条。