v

您的位置:VeryCD音乐古典音乐

音乐资源事务区


Kiri Te Kanawa -《卡娜娃经典唱段》(Classics)[FLAC]

  • 状态: 精华资源
  • 摘要:
    古典类型歌剧
    发行时间1993年
  • 时间: 2012/09/23 16:40:56 发布 | 2012/09/23 21:25:05 更新
  • 分类: 音乐  古典音乐 

Leonson

精华资源: 78

全部资源: 78

相关: 分享到新浪微博   转播到腾讯微博   分享到开心网   分享到人人   分享到QQ空间   订阅本资源RSS更新   美味书签  subtitle
该内容尚未提供权利证明,无法提供下载。
专辑英文名Classics
专辑中文名卡娜娃经典唱段
艺术家Kiri Te Kanawa
古典类型歌剧
资源格式FLAC
发行时间1993年
地区美国
简介

IPB Image

唱片厂牌:Philips
录音制式:Stereo ADD/DDD
唱片编号:434 725-2
资源出处:Leonson私人CD原版原抓 (FLAC, cue, log & booklet)

专辑介绍

基莉·迪·卡娜娃出生于新西兰,具有毛利及爱尔兰血统。她在新西兰接受了音乐教育,1966年赴英国伦敦歌剧中心继续学习,并于1970年加入英国皇家歌剧院。1971年,皇家科文特花园歌剧院,她在《费加罗的婚礼》中饰演伯爵夫人一角,大受欢迎,一举成名。正是以这个角色,同年卡娜娃赴美国圣达菲作首演,后又在旧金山首次献艺。她再次在旧金山演出的时候是1975年,在威尔第《西蒙·波卡涅拉》中饰唱阿梅莉亚和在莫扎特《魔笛》中饰演米娜。1974年,卡娜娃在纽约大都会歌剧院作了一场轰动乐坛的首演,她在接到演出通知仅数小时之后,便在威尔第《奥赛罗》中饰唱黛丝德莫娜一角,并由电视直播,遐尔闻名,备受好评。歌剧成绩斐然,举世闻名。

她的音乐会独唱水平亦高,1978-1979年,她首次在世界各地巡回举行独唱会,先在伦敦皇家歌剧院演唱,并由电视台转播,后赴纽约、米兰、维也纳、巴黎、旧金山和多伦多等地演唱。

1981年,在英皇储查尔斯与戴安娜王妃结婚典礼上,全球约6亿人通过卫星转播等各种途径,见证了卡娜娃以亨德尔《参孙》中《光辉的天使》一曲,祝福威尔士亲王查尔斯和其王妃戴安娜。翌年,由于她对音乐的贡献,被皇室授予大英帝国女爵士。


特别说明:

供源时段:全天
常用服务器:随机(eserver.no1、eDonkeyServer或www.UseNeXT.to)

1、本人所上传的所有资源仅供试听之用。有需要的朋友请购买正版CD;
2、由于带宽限制,请大家在下载时给予充足的耐性;
3、未经本人许可,本帖严禁转发。

代码
REM GENRE Classical
REM DATE 1992
REM DISCID B311670C
REM COMMENT "ExactAudioCopy v1.0b3"
CATALOG 0000000000000
PERFORMER "Kiri Te Kanawa"
TITLE "Classics (Philips 1992)"
FILE "Kiri Te Kanawa - Classics (Philips 1992).flac" WAVE
  TRACK 01 AUDIO
    TITLE "Mozart: Die Entfuhrung aus dem Serail, KV 384 - Martern aller Arten"
    PERFORMER "Kiri Te Kanawa"
    INDEX 00 00:00:00
    INDEX 01 00:00:32
  TRACK 02 AUDIO
    TITLE "Handel: Samson - Let the Bright Seraphim"
    PERFORMER "Kiri Te Kanawa"
    INDEX 00 08:46:32
    INDEX 01 08:50:32
  TRACK 03 AUDIO
    TITLE "Gounod: Messe solennelle de Sainte Cecile - Sanctus"
    PERFORMER "Kiri Te Kanawa"
    INDEX 00 14:45:32
    INDEX 01 14:50:32
  TRACK 04 AUDIO
    TITLE "Mozart: Idomeneo, KV 366 - Se il padre perdei"
    PERFORMER "Kiri Te Kanawa"
    INDEX 00 20:26:32
    INDEX 01 20:30:32
  TRACK 05 AUDIO
    TITLE "Mozart: Don Giovanni, KV 527 - Don Ottavio son morta!-Or sai chi l'onore"
    PERFORMER "Kiri Te Kanawa"
    INDEX 00 27:03:32
    INDEX 01 27:07:32
  TRACK 06 AUDIO
    TITLE "Schubert: Ave Maria, Op.52 No.6"
    PERFORMER "Kiri Te Kanawa"
    INDEX 00 33:40:32
    INDEX 01 33:44:32
  TRACK 07 AUDIO
    TITLE "Mozart: Vesperae solennes de confessore, KV 339 - Laudate Dominum"
    PERFORMER "Kiri Te Kanawa"
    INDEX 00 37:17:32
    INDEX 01 37:21:32
  TRACK 08 AUDIO
    TITLE "Mozart: Die Zauberflote, KV 620 - Ach, ich fuhl's"
    PERFORMER "Kiri Te Kanawa"
    INDEX 00 41:23:32
    INDEX 01 41:27:32
  TRACK 09 AUDIO
    TITLE "Gounod: Faust - Il ne revient pas"
    PERFORMER "Kiri Te Kanawa"
    INDEX 00 45:53:32
    INDEX 01 45:57:32
  TRACK 10 AUDIO
    TITLE "Mozart: Exsultate, jubilate, KV 165"
    PERFORMER "Kiri Te Kanawa"
    INDEX 00 49:14:32
    INDEX 01 49:18:32
  TRACK 11 AUDIO
    TITLE "Gounod: Faust - Ah! Je ris de me voir si belle"
    PERFORMER "Kiri Te Kanawa"
    INDEX 00 64:27:32
    INDEX 01 64:31:32
  TRACK 12 AUDIO
    TITLE "Johann Strauss: Die Fledermaus - Klange der Heimat "
    PERFORMER "Kiri Te Kanawa"
    INDEX 00 69:20:32
    INDEX 01 69:24:32


IPB Image



专辑曲目

01. Mozart: Die Entführung aus dem Serail, KV 384 - Martern aller Arten
02. Handel: Samson - Let the Bright Seraphim
03. Gounod: Messe solennelle de Sainte Cécile - Sanctus
04. Mozart: Idomeneo, KV 366 - Se il padre perdei
05. Mozart: Don Giovanni, KV 527 - Don Ottavio son morta!-Or sai chi l'onore
06. Schubert: Ave Maria, Op.52 No.6 (Arr./Bearb: Thelma Owen)
07. Mozart: Vesperae solennes de confessore, KV 339 - Laudate Dominum
08. Mozart: Die Zauberflöte, KV 620 - Ach, ich fühl's
09. Gounod: Faust - Il ne revient pas
10. Mozart: Exsultate, jubilate, KV 165
11. Gounod: Faust - Ah! Je ris de me voir si belle
12. Johann Strauss: Die Fledermaus - Klänge der Heimat

Kiri Te Kanawa, soprano

José Luis Garcia, violin (1)
Charles Tunnel, cello (1)
William Bennett, flute (1)
Neil Black, Oboe (1)
Thelma Owen, harp (6)

Choir of St. Paul's Cathedral (2, 3, 6, 7)

English Chamber Orchestra (1, 2, 3, 5, 6, 7)
London Symphony Orchestra (4, 8, 10)
Symphonie-orchester des Bayerischen Rundfunks (9, 11)
Wiener Philharmoniker (12)

Conducted by:
Jeffrey Tate (1, 5)
Barry Rose (2, 3, 6, 7)
Sir Colin Davis (4, 8, 9, 10, 11)
André Previn (12)

正在读取……

这里是其它用户补充的资源(我也要补充):

暂无补充资源
正在加载,请稍等...

点击查看所有190网友评论

 

(?) [公告]留口水、评论相关规则 | [活动]每日签到 轻松领取电驴经验

    小贴士:
  1. 类似“顶”、“沙发”之类没有营养的文字,对勤劳贡献的楼主来说是令人沮丧的反馈信息。
  2. 提问之前请再仔细看一遍楼主的说明,或许是您遗漏了。
  3. 勿催片。请相信驴友们对分享是富有激情的,如果确有更新版本,您一定能搜索到。
  4. 请勿到处挖坑绊人、招贴广告。既占空间让人厌烦,又没人会搭理,于人于己都无利。
  5. 如果您发现自己的评论不见了,请参考以上4条。