v

您的位置:VeryCD音乐其它音乐

音乐资源事务区


V.A. -《2012第16届广州高级音响展HI-FI珍藏版CD》(2012 Guangzhou High-end Audio Visual Show)[FLAC]


112次 收藏
  • 状态: 精华资源
  • 摘要:
    发行时间2012年
  • 时间: 2012/09/17 16:56:40 发布 | 2012/09/17 19:48:27 更新
  • 分类: 音乐  其它音乐 

Leonson

精华资源: 78

全部资源: 78

相关: 分享到新浪微博   转播到腾讯微博   分享到开心网   分享到人人   分享到QQ空间   订阅本资源RSS更新   美味书签  subtitle
专辑中文名2012第16届广州高级音响展HI-FI珍藏版CD
专辑英文名2012 Guangzhou High-end Audio Visual Show
艺术家V.A.
资源格式FLAC
发行时间2012年
地区大陆
简介

IPB Image

资源出处:Leonson私人CD原版原抓(FLAC, cue, log & booklet)

专辑介绍:

为期三天的"2012广州国际高级音响展"暨"第十六届2012广州高级音响展于2012年9月9日在广州市白云国际会议中心闭幕。2012广州高级音响展汇聚展示全球数百款经典品牌最新型号音响器材,其中更有多款价值数百万元级的超级音响系统、超级影院系统亚洲首次现场演示、数千款中外唱片展销。在展览期间举行了数十场音乐音响专场演示欣赏会,各参展商分别用旗舰最新型号器材搭配演示,并有知名音响专业人士及音乐人参与了活动。各大唱片公司的多位著名艺术家、音响专家、设计师,到现场与参观者签名及交流活动,参观者还可以自由选择鉴赏最新、最优秀的影音享受。同时举办的中外唱片展销,参观人士可自由挑选自己喜爱的音乐CD和黑胶唱片。

《2012广州高级音响展HI-FI珍藏版CD》曲目总共17首,由国际、国内多家各知名唱片公司提供版权及母带,HQCD的母带使用了母盘工艺大师无可挑剔的创新的K2HD母带技术处理(即K2 High Definition编解码技术),使CD上的音质提升到高达100kHz的宽频带及24比特的高分辨率,并将这些音频信息装载在CD中的一种完美的CD音质改善技术,将普通CD的音质提升了4-5倍。

处理好的HQCD母带再交由已经取得了HQCD制作技术和专利的上海联合光盘有限公司压片,HQCD由于采用全新的原材料制造,所以要求工艺相当严格,HQCD的碟片采用的是制造液晶屏用的导光板的原材料,这种材料具有无比优越的透明度和折射率,能将CD母版的信号更精确的在光盘上记录下来,为更准确地读取讯号提供必要的基本条件。同时又具有注塑成型更精确的优点,从而使数字信号的记录更准确。

HQCD唱片为了获得更精确的反射层,采用的是特殊合金溅镀反射面,现在普通CD的表面涂层一般选用铝合金,而HQCD则选用银合金,具有比普通CD高数倍的反射率。这种改善了数倍的反射率使声音波形中的网格更清晰,波形(waveform)峰谷(高与低的)值较大,因而对CD母盘信号的再现能力也提高了数倍,大大提高了数字信号读取的正确率,使音质更加接近于原声,所以能更忠实地重放母版的讯号。

HQCD版《2012广州高级音响展HI-FI珍藏版CD》,其品质明显高于普通CD,HQCD的创新技术和材料的优越性,结合K2HD母带处理技术,使这张免费赠送的HQCD版《2012广州高级音响展HI-FI珍藏版CD》唱片的成品达到了接近原始音乐母带的完美音质的再现,HQCD版声音生动而具有变化万千的色彩,让听众体验到更微细的响度的变化,更高分辨率的音频表现,从而感受到更丰富的音色。



特别说明:

供源时段:全天
常用服务器:随机(eserver.no1、eDonkeyServer或www.UseNeXT.to)

1、本人所上传的所有资源仅供试听之用。有需要的朋友请购买正版CD;
2、由于带宽限制,请大家在下载时给予充足的耐性;
3、专辑曲目中的年份为录音年份;
4、未经本人许可,本帖严禁转发。

IPB Image

代码
REM GENRE 杂锦碟
REM DATE 2012
REM DISCID DB10D111
REM COMMENT "ExactAudioCopy v1.0b3"
PERFORMER "群星"
TITLE "2012广州高级音响展HI-FI珍藏版CD"
FILE "群星 - 2012广州高级音响展HI-FI珍藏版CD.flac" WAVE
  TRACK 01 AUDIO
    TITLE "啊,我亲爱的爸爸"
    PERFORMER "李传韵"
    FLAGS DCP
    INDEX 01 00:00:00
  TRACK 02 AUDIO
    TITLE "永远对你的爱"
    PERFORMER "凯瑟琳·詹金斯"
    FLAGS DCP
    INDEX 01 05:55:50
  TRACK 03 AUDIO
    TITLE "微风与我"
    PERFORMER "敲击乐小合奏"
    FLAGS DCP
    INDEX 01 10:19:25
  TRACK 04 AUDIO
    TITLE "数天数"
    PERFORMER "龚玥"
    FLAGS DCP
    INDEX 01 12:45:25
  TRACK 05 AUDIO
    TITLE "荣耀"
    PERFORMER "西格蒙德·葛洛文"
    FLAGS DCP
    INDEX 01 16:44:00
  TRACK 06 AUDIO
    TITLE "我的全部"
    PERFORMER "布雷克男声四重唱组合"
    FLAGS DCP
    INDEX 01 19:56:50
  TRACK 07 AUDIO
    TITLE "拉赫玛尼诺夫:G大调大提琴协奏曲 - 诙谐的快板"
    PERFORMER "秦立巍&Albert Tiu"
    FLAGS DCP
    INDEX 01 23:39:25
  TRACK 08 AUDIO
    TITLE "雨夜花(台湾歌谣)"
    PERFORMER "童丽"
    FLAGS DCP
    INDEX 01 30:49:00
  TRACK 09 AUDIO
    TITLE "九九艳阳天"
    PERFORMER "孟晓旭"
    FLAGS DCP
    INDEX 01 33:57:50
  TRACK 10 AUDIO
    TITLE "静夜思"
    PERFORMER "关栋天"
    FLAGS DCP
    INDEX 01 36:59:00
  TRACK 11 AUDIO
    TITLE "舒伯特:军队进行曲"
    PERFORMER "阿德里安·乔治"
    FLAGS DCP
    INDEX 01 40:28:50
  TRACK 12 AUDIO
    TITLE "你变了吗"
    PERFORMER "乌兰托娅"
    FLAGS DCP
    INDEX 01 44:43:25
  TRACK 13 AUDIO
    TITLE "组曲‘探戈历史’节选"
    PERFORMER "香港纯弦乐队"
    FLAGS DCP
    INDEX 01 49:02:00
  TRACK 14 AUDIO
    TITLE "绿岛小夜曲"
    PERFORMER "刘紫玲"
    FLAGS DCP
    INDEX 01 53:19:50
  TRACK 15 AUDIO
    TITLE "季节的回转"
    PERFORMER "瞿慧莉&金文彬"
    FLAGS DCP
    INDEX 01 57:32:00
  TRACK 16 AUDIO
    TITLE "重逢"
    PERFORMER "雪莉"
    FLAGS DCP
    INDEX 01 61:24:50
  TRACK 17 AUDIO
    TITLE "柴可夫斯基:‘马采巴’选段 - ‘霍帕克’舞曲"
    PERFORMER "明尼苏达交响乐团"
    FLAGS DCP
    INDEX 01 67:28:00



专辑曲目

01. 啊,我亲爱的爸爸 | 演奏:李传韵(小提琴)
选自天弦唱片《2012李传韵小提琴演奏专辑》(尚未发行)

02. 永远对你的爱 | 女声演唱:凯瑟琳·詹金斯
选自ABC唱片HD-211《西电,令人印象深刻的发烧女声》

03. 微风与我 | 敲击乐小合奏
选自天乐唱片TM-SACD 9013.2《敲击皇·波波碟》

04. 数天数 | 女声演唱:龚玥
选自红音堂唱片RMSQ-1038《新佛乐·神是一枝花·龚玥》

05. 荣耀 | 器乐二重奏:西格蒙德·葛洛文(口琴)、艾弗·克雷夫(管风琴)
选自拿索斯代理唱片2L-007-SABD(2碟)《西格蒙德&克雷夫:口琴与管风琴二重奏》

06. 我的全部 | 演唱:布雷克男声四重唱组合
选自EMI 9 7877 9 8988703 (A3330-2L)《布雷克·我们在一起》(特别版)

07. 《G大调大提琴协奏曲》,作品19号:诙谐的快板 | 演奏:秦立巍(大提琴)、Albert Tiu (钢琴)
选自环球DECCA 8898195《拉赫玛尼诺夫:为大提琴与钢琴而作的作品》

08. (台湾歌谣)雨夜花 | 女声(闽南话)演唱:童丽
选自妙音唱片DSD-0196《梦中的情话·童丽》

09. 九九艳阳天 | 二胡演奏:孟晓旭
选自雨林唱片H-198《绒花·孟晓旭》

10. 静夜思 | 老生京腔演唱:关栋天
选自瑞鸣唱片RMCD-G028《短歌行·关栋天》

11. 舒伯特:军队进行曲 | 钢琴独奏:阿德里安·乔治
选自ABC唱片HD-205《一个消失的录音室》

12. 你变了吗 | 女声演唱:乌兰托娅
选自星文唱片SLCD-0102《我来自西藏·乌兰托娅》

13. 皮亚佐拉:组曲《探戈历史》节选 | 弦乐合奏:香港纯弦乐队
选自老易文化唱片HUGO LPCD1630-7315《从这到那·2011·香港纯弦》

14. 绿岛小夜曲 | 女声演唱:刘紫玲
选自东昇唱片DS888-126《紫音幽韵·刘紫玲》

15. 季节的回转 | 大提琴独奏:瞿慧莉、钢琴伴奏:金文彬
选自达人艺典唱片DRMA-CCC-1106 HQ《最美大提琴·蔓延》

16. 重逢 | 爵士女中音演唱:雪莉
选自风林唱片FLHQCD《2012雪莉专辑》(尚未发行)

17. 柴可夫斯基:《马采巴》选段 - 乌克兰舞曲“霍帕克” | 演奏:明尼苏达交响乐团、指挥:大植英次
选自拿索斯代理唱片RR-71CD《舞迷心窍》

正在读取……

这里是其它用户补充的资源(我也要补充):

暂无补充资源
正在加载,请稍等...

点击查看所有292网友评论

 

(?) [公告]留口水、评论相关规则 | [活动]每日签到 轻松领取电驴经验

    小贴士:
  1. 类似“顶”、“沙发”之类没有营养的文字,对勤劳贡献的楼主来说是令人沮丧的反馈信息。
  2. 提问之前请再仔细看一遍楼主的说明,或许是您遗漏了。
  3. 勿催片。请相信驴友们对分享是富有激情的,如果确有更新版本,您一定能搜索到。
  4. 请勿到处挖坑绊人、招贴广告。既占空间让人厌烦,又没人会搭理,于人于己都无利。
  5. 如果您发现自己的评论不见了,请参考以上4条。