v

您的位置:VeryCD音乐古典音乐

音乐资源事务区


吉东·克莱默 Gidon Kremer -《向探戈大师皮亚佐拉致敬》(Hommage à Piazzolla)Poloarts 普罗艺术[FLAC]

  • 状态: 精华资源
  • 摘要:
    古典类型室内乐
    发行时间2000年
  • 时间: 2012/08/11 12:53:36 发布 | 2012/08/11 20:54:12 更新
  • 分类: 音乐  古典音乐 

kalasnikf

精华资源: 359

全部资源: 362

相关: 分享到新浪微博   转播到腾讯微博   分享到开心网   分享到人人   分享到QQ空间   订阅本资源RSS更新   美味书签  subtitle
该内容尚未提供权利证明,无法提供下载。
专辑英文名Hommage à Piazzolla
专辑中文名向探戈大师皮亚佐拉致敬
古典类型室内乐
资源格式FLAC
版本Poloarts 普罗艺术
发行时间2000年
地区大陆,美国
语言普通话,英语
简介

IPB Image

专辑介绍

引用
欢迎大家移步我在ED2000 的 资源列表 里面都是各种原因无法在VeryCD加精的好资源 http://www.ed2000.com/FileList.asp?UserEma...sina.com


克莱默演绎的皮亚佐拉

2001年12月04日09:27:54 北京青年报 

  一个人越深入地了解音乐,便越有可能深刻地揭示音乐的不寻常之处。
  
  一段看似慵懒闲适的探戈音乐可能是一部经过仔细推敲、具有严谨对位技巧的作品,将我们突然从自由放荡的环境推入严谨规矩的社会。阿斯特·皮亚佐拉的音乐有如奇异而危险的迷幻药,它是一把双刃剑,在带来迷狂与兴奋的同时,又引起人们心中真切的悔恨。
  
  一位深谙拉丁美洲气质的天才诗人曾这样描述他:“他具有魔力的双手,将人类的情感卷入混乱之中……他的音乐气氛就是探戈所应有的气氛:混合着汗水与烟卷气,百合芬芳与尿臊味。它勾起我们游移在法律约束左右的所有欲望……他的音乐是一个复杂体,仿佛一件旧衣服,也仿佛一个复杂的人,带着他所有的羞耻、梦想、神经质、直觉、爱恋、憎恨、冲动、震撼、诗意、信仰、怀疑、否定、肯定……”同时,将探戈这种结构简单的音乐体裁上升到现在这样的深度和广度,确实需要天才的创造。皮亚佐拉受到了良好的音乐教育,他充满戏剧性的作品表现了他对作曲技法的把握和熟练的演奏技巧。
  
  尽管如此,他的音乐最适合的演奏场所还是城市的酒吧及咖啡屋,而非音乐厅。对他来讲,创作和演奏是不可分割的统一体。即音乐的即兴性——演奏与创作合二为一。因此皮亚佐拉的作品每一次演奏都具有全新的生命力。
  
  本专辑中吉登·克莱默的演绎便给我们带来如此的惊喜。皮亚佐拉善于将冷酷无情的节奏与和谐优美的音乐相交融,这便是他音乐中苦乐参半的特点。悲剧性的音乐本质,它是一种“多元”文化,一种真正融会贯通各种文化、具有自身生命力的文化。它具有与其他的伟大创造一样的特点:出其不意、多元化、革命性及具有高雅的特性。
引用
专辑仅供试听,如有需要请购买正版,鄙视一切用资源牟利的小人,希望网友共同声讨淘宝上以上海古典CD坊为代表的刻录盘卖家!

引用
欢迎大家移步我在ED2000 的 资源列表 里面都是各种原因无法在VeryCD加精的好资源 http://www.ed2000.com/FileList.asp?UserEma...sina.com


代码
REM GENRE Tango
REM DATE 1996
REM DISCID 9310DA0B
REM COMMENT "ExactAudioCopy v1.0b3"
PERFORMER "Gidon Kremer"
TITLE "Hommage à Piazzolla"
FILE "Gidon.Kremer.-.[Hommage.à.Piazzolla].专辑.(FLAC).flac" WAVE
  TRACK 01 AUDIO
    TITLE "Milonga En Re"
    PERFORMER "Gidon Kremer"
    INDEX 01 00:00:00
  TRACK 02 AUDIO
    TITLE "Vardarilo"
    PERFORMER "Gidon Kremer"
    INDEX 00 04:25:65
    INDEX 01 04:29:02
  TRACK 03 AUDIO
    TITLE "Oblivion"
    PERFORMER "Gidon Kremer"
    INDEX 00 11:04:22
    INDEX 01 11:08:05
  TRACK 04 AUDIO
    TITLE "Escualo"
    PERFORMER "Gidon Kremer"
    INDEX 00 15:14:62
    INDEX 01 15:18:05
  TRACK 05 AUDIO
    TITLE "Café 1930 (From Histoire Du Tango)"
    PERFORMER "Gidon Kremer"
    INDEX 00 18:55:65
    INDEX 01 18:59:05
  TRACK 06 AUDIO
    TITLE "Concierto Para Quinteto"
    PERFORMER "Gidon Kremer"
    INDEX 00 26:50:42
    INDEX 01 26:54:06
  TRACK 07 AUDIO
    TITLE "Soledad"
    PERFORMER "Gidon Kremer"
    INDEX 00 36:21:67
    INDEX 01 36:26:02
  TRACK 08 AUDIO
    TITLE "Buenos Aires Hora Cero"
    PERFORMER "Gidon Kremer"
    INDEX 00 44:12:37
    INDEX 01 44:16:02
  TRACK 09 AUDIO
    TITLE "Celos"
    PERFORMER "Gidon Kremer"
    INDEX 00 50:47:00
    INDEX 01 50:51:05
  TRACK 10 AUDIO
    TITLE "El Sol Sueno (Hommage à Astor Piazzolla By Jerzy Peterburshsky)"
    PERFORMER "Gidon Kremer"
    INDEX 00 56:08:00
    INDEX 01 56:11:05
  TRACK 11 AUDIO
    TITLE "Le Grand Tango"
    PERFORMER "Gidon Kremer"
    INDEX 00 59:40:70
    INDEX 01 59:45:02


代码
Exact Audio Copy V1.0 beta 3 from 29. August 2011

EAC 抓取日志文件从11. 八月 2012, 12:33

Gidon Kremer / Hommage à Piazzolla

使用驱动器  :SlimtypeDVD A  DS8A5SH   Adapter: 1  ID: 0

读取模式 : 暴发

读取偏移校正:               : 6
读取 Lead-In 和 Lead-Out : 否
用静音填充抓取中丢失偏移的采样       : 是
去除首尾静音块               : 否
在CRC 计算中使用了空样本       : 是
已用接口                  : Win NT 及 2000 本地 Win32 接口

所用输出模式: : 内部 WAV 函数
样本格式    : 44.100 Hz; 16 Bit; 立体声


已抓取 CD 的 TOC

     音轨 |    起始    |    长度    |  起始扇区  |  结束扇区  
    --------------------------------------------
      1 |  0:00.00 |  4:29.02 |      0 |  20176
      2 |  4:29.02 |  6:39.03 |  20177 |  50104
      3 | 11:08.05 |  4:10.00 |  50105 |  68854
      4 | 15:18.05 |  3:41.00 |  68855 |  85429
      5 | 18:59.05 |  7:55.01 |  85430 | 121055
      6 | 26:54.06 |  9:31.71 | 121056 | 163951
      7 | 36:26.02 |  7:50.00 | 163952 | 199201
      8 | 44:16.02 |  6:35.03 | 199202 | 228829
      9 | 50:51.05 |  5:20.00 | 228830 | 252829
     10 | 56:11.05 |  3:33.72 | 252830 | 268876
     11 | 59:45.02 | 12:09.28 | 268877 | 323579


范围状态及错误

已选择范围   (扇区 0-323579)

     文件名 E:\音频处理\pia.wav

     计时问题 0:00:21
     计时问题 0:00:25

     峰值电平 99.7 %
     抓取速度 6.9 X
     复制 CRC 413FD4B5
     复制结束

没有错误发生


AccurateRip 摘要

音轨  1  不能准确地校验 (确认 1)  [ADA9A148], 返回 AccurateRip [1D977576]  (AR v2)
音轨  2  不能准确地校验 (确认 1)  [3BE3E4A0], 返回 AccurateRip [7002F7C1]  (AR v2)
音轨  3  不能准确地校验 (确认 1)  [BE87BF32], 返回 AccurateRip [8B43759C]  (AR v2)
音轨  4  不能准确地校验 (确认 1)  [B8506660], 返回 AccurateRip [8D0468F2]  (AR v2)
音轨  5  不能准确地校验 (确认 1)  [3588078F], 返回 AccurateRip [03FA4997]  (AR v2)
音轨  6  不能准确地校验 (确认 1)  [33DC1B85], 返回 AccurateRip [608B9FE6]  (AR v2)
音轨  7  不能准确地校验 (确认 1)  [EA65D065], 返回 AccurateRip [9B8383AE]  (AR v2)
音轨  8  不能准确地校验 (确认 1)  [7034B13B], 返回 AccurateRip [FA46019D]  (AR v2)
音轨  9  不能准确地校验 (确认 1)  [7512F2AE], 返回 AccurateRip [5742B804]  (AR v2)
音轨 10  不能准确地校验 (确认 1)  [DA45418C], 返回 AccurateRip [24EF03D0]  (AR v2)
音轨 11  不能准确地校验 (确认 1)  [8D74BEC1], 返回 AccurateRip [AA231D64]  (AR v2)

没有音轨被准确核实
你的版本可能与数据库的版本不同

状态报告结尾



专辑曲目

01 D大调米隆伽舞Milonga en re
02 瓦达利托Vardarito
03 遗忘Oblivion
04 艾斯库罗Escualo
05 咖啡1930 Cafe 1930
06 五重协奏曲Concierto para quinteto
07 孤独Soledad
08 零点的布宜诺斯艾利斯Buenos Aires hora cero
09 忌妒Celos
10 太阳梦(向皮亚佐拉致敬)El sol sueno (Hommage to Astor Piazzolla)
11 伟大的探戈Le grand tango

正在读取……

这里是其它用户补充的资源(我也要补充):

暂无补充资源
正在加载,请稍等...

点击查看所有108网友评论

 

(?) [公告]留口水、评论相关规则 | [活动]每日签到 轻松领取电驴经验

    小贴士:
  1. 类似“顶”、“沙发”之类没有营养的文字,对勤劳贡献的楼主来说是令人沮丧的反馈信息。
  2. 提问之前请再仔细看一遍楼主的说明,或许是您遗漏了。
  3. 勿催片。请相信驴友们对分享是富有激情的,如果确有更新版本,您一定能搜索到。
  4. 请勿到处挖坑绊人、招贴广告。既占空间让人厌烦,又没人会搭理,于人于己都无利。
  5. 如果您发现自己的评论不见了,请参考以上4条。