v

您的位置:VeryCD音乐古典音乐

音乐资源事务区


古尔达 Friedrich Gulda & 萨瓦利什Wolfgang Sawallisch -《莫扎特第25、40交响曲/第14钢琴协奏曲》(Mozart: Symphony No 25&40, Concerto For Piano No 14 )Orfeo 萨尔茨堡音乐节现场版[FLAC]

  • 状态: 精华资源
  • 摘要:
    古典类型交响曲
    发行时间2009年
  • 时间: 2012/08/11 12:08:39 发布 | 2012/08/11 20:52:57 更新
  • 分类: 音乐  古典音乐 

kalasnikf

精华资源: 359

全部资源: 362

相关: 分享到新浪微博   转播到腾讯微博   分享到开心网   分享到人人   分享到QQ空间   订阅本资源RSS更新   美味书签  subtitle
该内容尚未提供权利证明,无法提供下载。
专辑英文名Mozart: Symphony No 25&40, Concerto For Piano No 14
专辑中文名莫扎特第25、40交响曲/第14钢琴协奏曲
古典类型交响曲
资源格式FLAC
版本Orfeo 萨尔茨堡音乐节现场版
发行时间2009年
地区德国
语言英语,德语
简介

IPB Image

专辑介绍

这是Orfeo公司所发行的萨尔茨堡音乐节实况录音系列中的一张,为1958年萨尔茨堡音乐节时的一个现场录音,时间是8月2日。
这届萨尔茨堡音乐节的参演乐团是世界著名的顶级乐团——荷兰阿姆斯特丹皇家音乐大厅管弦乐团(Royal Concertgebouw Orchestra,RCO)。这支由荷兰国宝级指挥大师门格尔贝格一手打造的一流乐团是柏林爱乐乐团之后第二个造访萨尔茨堡音乐节的外国乐团。乐团在这次音乐节上共演出五场,分别由五位指挥家指挥:时任RCO首席指挥的贝奴姆(Beinum)、德国大师约胡姆(Jochum)、美籍匈牙利大师塞尔(Szell)、希腊名家米特罗普洛斯(Mitropoulos)以及本专辑的主角之一,当时年仅35岁的指挥家萨瓦利什Wolfgang Sawallisch。他和当时年仅28岁的钢琴大师古尔达一同合作演出了莫扎特的第14钢琴协奏曲,并自己指挥了莫扎特第25和40交响曲。这个珍贵的录音让我们得以感受两位大师年轻时候的艺术风范。

代码
REM GENRE Classical
REM DATE 1958
REM DISCID B510510B
REM COMMENT "ExactAudioCopy v1.0b3"
PERFORMER "Friedrich Gulda - Concertgebouw Okest - Wolfgang Sawallisch"
TITLE "Symphonie Nr. 25 & 40 - Klaviertkonzert Nr. 14"
FILE "Friedrich.Gulda.Concertgebouw.Okest.Wolfgang.Sawallisch.-.[Symphonie.Nr.25.&.40.Klaviertkonzert.Nr.14].专辑.(FLAC).flac" WAVE
  TRACK 01 AUDIO
    TITLE "Symphonie Nr. 25 in g-moll KV 183, I. Allegro con brio"
    PERFORMER "Friedrich Gulda - Concertgebouw Okest - Wolfgang Sawallisch"
    INDEX 01 00:00:00
  TRACK 02 AUDIO
    TITLE "Symphonie Nr. 25 in g-moll KV 183, II. Andante"
    PERFORMER "Friedrich Gulda - Concertgebouw Okest - Wolfgang Sawallisch"
    INDEX 00 08:22:73
    INDEX 01 08:37:60
  TRACK 03 AUDIO
    TITLE "Symphonie Nr. 25 in g-moll KV 183, III. Menuetto"
    PERFORMER "Friedrich Gulda - Concertgebouw Okest - Wolfgang Sawallisch"
    INDEX 00 12:19:34
    INDEX 01 12:35:40
  TRACK 04 AUDIO
    TITLE "Symphonie Nr. 25 in g-moll KV 183, IV. Allegro"
    PERFORMER "Friedrich Gulda - Concertgebouw Okest - Wolfgang Sawallisch"
    INDEX 00 16:07:37
    INDEX 01 16:16:52
  TRACK 05 AUDIO
    TITLE "Klavierkonzert Nr. 14 in Es-Dur KV 449, I. Allegro vivace"
    PERFORMER "Friedrich Gulda - Concertgebouw Okest - Wolfgang Sawallisch"
    INDEX 00 22:18:07
    INDEX 01 22:31:21
  TRACK 06 AUDIO
    TITLE "Klavierkonzert Nr. 14 in Es-Dur KV 449, II. Andantino"
    PERFORMER "Friedrich Gulda - Concertgebouw Okest - Wolfgang Sawallisch"
    INDEX 00 31:17:13
    INDEX 01 31:26:56
  TRACK 07 AUDIO
    TITLE "Klavierkonzert Nr. 14 in Es-Dur KV 449, III. Allegro ma non troppo"
    PERFORMER "Friedrich Gulda - Concertgebouw Okest - Wolfgang Sawallisch"
    INDEX 00 37:52:45
    INDEX 01 38:02:49
  TRACK 08 AUDIO
    TITLE "Symphonie Nr. 40 in g-moll KV 550, I. Molto allegro"
    PERFORMER "Friedrich Gulda - Concertgebouw Okest - Wolfgang Sawallisch"
    INDEX 00 44:36:72
    INDEX 01 44:47:42
  TRACK 09 AUDIO
    TITLE "Symphonie Nr. 40 in g-moll KV 550, II. Andante"
    PERFORMER "Friedrich Gulda - Concertgebouw Okest - Wolfgang Sawallisch"
    INDEX 00 51:45:73
    INDEX 01 51:57:22
  TRACK 10 AUDIO
    TITLE "Symphonie Nr. 40 in g-moll KV 550, III. Menuetto"
    PERFORMER "Friedrich Gulda - Concertgebouw Okest - Wolfgang Sawallisch"
    INDEX 00 59:38:56
    INDEX 01 59:58:03
  TRACK 11 AUDIO
    TITLE "Symphonie Nr. 40 in g-moll KV 550, IV. Allegro assai"
    PERFORMER "Friedrich Gulda - Concertgebouw Okest - Wolfgang Sawallisch"
    INDEX 00 64:17:46
    INDEX 01 64:30:49


代码
Exact Audio Copy V1.0 beta 3 from 29. August 2011

EAC 抓取日志文件从11. 八月 2012, 11:39

Friedrich Gulda - Concertgebouw Okest - Wolfgang Sawallisch / Symphonie Nr. 25 & 40 - Klaviertkonzert Nr. 14

使用驱动器  :SlimtypeDVD A  DS8A5SH   Adapter: 1  ID: 0

读取模式 : 暴发

读取偏移校正:               : 6
读取 Lead-In 和 Lead-Out : 否
用静音填充抓取中丢失偏移的采样       : 是
去除首尾静音块               : 否
在CRC 计算中使用了空样本       : 是
已用接口                  : Win NT 及 2000 本地 Win32 接口

所用输出模式: : 内部 WAV 函数
样本格式    : 44.100 Hz; 16 Bit; 立体声


已抓取 CD 的 TOC

     音轨 |    起始    |    长度    |  起始扇区  |  结束扇区  
    --------------------------------------------
      1 |  0:00.00 |  8:37.60 |      0 |  38834
      2 |  8:37.60 |  3:57.55 |  38835 |  56664
      3 | 12:35.40 |  3:41.12 |  56665 |  73251
      4 | 16:16.52 |  6:14.44 |  73252 | 101345
      5 | 22:31.21 |  8:55.35 | 101346 | 141505
      6 | 31:26.56 |  6:35.68 | 141506 | 171198
      7 | 38:02.49 |  6:44.68 | 171199 | 201566
      8 | 44:47.42 |  7:09.55 | 201567 | 233796
      9 | 51:57.22 |  8:00.56 | 233797 | 269852
     10 | 59:58.03 |  4:32.46 | 269853 | 290298
     11 | 64:30.49 |  5:06.62 | 290299 | 313310


范围状态及错误

已选择范围   (扇区 0-313310)

     文件名 E:\音频处理\范围.wav

     计时问题 0:28:01

     峰值电平 90.2 %
     抓取速度 6.9 X
     复制 CRC 549A6CBD
     复制结束

没有错误发生


AccurateRip 摘要

音轨  1  在数据库中不存在
音轨  2  在数据库中不存在
音轨  3  在数据库中不存在
音轨  4  在数据库中不存在
音轨  5  在数据库中不存在
音轨  6  在数据库中不存在
音轨  7  在数据库中不存在
音轨  8  在数据库中不存在
音轨  9  在数据库中不存在
音轨 10  在数据库中不存在
音轨 11  在数据库中不存在

没有任何音轨在 AccurateRip 数据库中有记录

状态报告结尾



专辑曲目

1 Symphonie Nr. 25 in g-moll KV 183, I. Allegro con brio
2 Symphonie Nr. 25 in g-moll KV 183, II. Andante
3 Symphonie Nr. 25 in g-moll KV 183, III. Menuetto
4 Symphonie Nr. 25 in g-moll KV 183, IV. Allegro
5 Klavierkonzert Nr. 14 in Es-Dur KV 449, I. Allegro vivace
6 Klavierkonzert Nr. 14 in Es-Dur KV 449, II. Andantino
7 Klavierkonzert Nr. 14 in Es-Dur KV 449, III. Allegro ma non troppo
8 Symphonie Nr. 40 in g-moll KV 550, I. Molto allegro
9 Symphonie Nr. 40 in g-moll KV 550, II. Andante
10 Symphonie Nr. 40 in g-moll KV 550, III. Menuetto
11 Symphonie Nr. 40 in g-moll KV 550, IV. Allegro assai

正在读取……

这里是其它用户补充的资源(我也要补充):

暂无补充资源
正在加载,请稍等...

点击查看所有61网友评论

 

(?) [公告]留口水、评论相关规则 | [活动]每日签到 轻松领取电驴经验

    小贴士:
  1. 类似“顶”、“沙发”之类没有营养的文字,对勤劳贡献的楼主来说是令人沮丧的反馈信息。
  2. 提问之前请再仔细看一遍楼主的说明,或许是您遗漏了。
  3. 勿催片。请相信驴友们对分享是富有激情的,如果确有更新版本,您一定能搜索到。
  4. 请勿到处挖坑绊人、招贴广告。既占空间让人厌烦,又没人会搭理,于人于己都无利。
  5. 如果您发现自己的评论不见了,请参考以上4条。