v

您的位置:VeryCD音乐古典音乐

音乐资源事务区


鲍罗丁四重奏团 Borodin Quartet & 罗斯特洛波维奇 Mstislav Rostropovich & 塔拉杨 Genrikh Talalyan -《柴可夫斯基第1-3号弦乐四重奏、“小四重奏”和弦乐六重奏“佛罗伦萨的回忆”》(Tchaikovsky: String Quartets 1-3 and Quartettsatz and Sextet "Souvenir de Florence")Melodiya 2CD[FLAC]

  • 状态: 精华资源
  • 摘要:
    古典类型室内乐
    发行时间1993年
  • 时间: 2012/08/11 10:38:59 发布 | 2012/08/11 20:52:48 更新
  • 分类: 音乐  古典音乐 

kalasnikf

精华资源: 359

全部资源: 362

相关: 分享到新浪微博   转播到腾讯微博   分享到开心网   分享到人人   分享到QQ空间   订阅本资源RSS更新   美味书签  subtitle
该内容尚未提供权利证明,无法提供下载。
专辑英文名Tchaikovsky: String Quartets 1-3 and Quartettsatz and Sextet "Souvenir de Florence"
专辑中文名柴可夫斯基第1-3号弦乐四重奏、“小四重奏”和弦乐六重奏“佛罗伦萨的回忆”
古典类型室内乐
资源格式FLAC
版本Melodiya 2CD
发行时间1993年
地区俄罗斯
语言英语,俄语
简介

IPB Image

专辑介绍

  柴可夫斯基的室内乐曲非常少,而最具代表性的大概就是三首弦乐四重奏与弦乐六重奏《佛罗伦斯的回忆》了,在写作第一号弦乐四重奏之前,柴可夫斯基对室内乐的体裁并不熟悉,而且更可说是毫无兴趣。直到在一场为欢迎大文豪托尔斯泰的音乐会上,托尔斯泰聆赏至第一号弦乐四重奏的第二乐章[如歌似的行板]时感动地流下泪来,这对柴可夫斯基而言,真是莫大的光荣,于是才开始继续为室内乐写作。
  担任演出的鲍罗定弦乐四重春甫于去年(一九九五)渡过五十个年团庆,名乐评家曹永坤先生曾盛赞此团堪称当今最好、最伟大弦乐四重奏团,他们最擅长的就是柴可夫斯基等俄国作曲家的作品诠释,由本专辑录音中乐迷即可明了,而特别推荐的就是本专辑中所收录的弦乐六重奏《佛罗伦斯的回忆》,在第二乐章与第三乐章中罗斯卓波维契、塔拉扬与鲍罗定弦乐四重奏的第一小提琴手杜宾斯基几段如歌如诉的三重奏,让人心绪随着音乐而起伏,荡漾不已! 

代码
REM GENRE "Chamber Music"
REM DATE 1993
REM DISCID 8C125309
REM COMMENT "ExactAudioCopy v1.0b3"
PERFORMER "Borodin Quartet"
TITLE "Tchaikovsky-String Quartets(Disc1)"
FILE "Borodin.Quartet.Rostropovich.Talalyan.-.[Tchaikovsky.String.Quartets.Sextet.Souvenir.de.Florence].CD1.专辑.(FLAC).flac" WAVE
  TRACK 01 AUDIO
    TITLE "Moderato e semplice-Allegro giusto"
    PERFORMER "Borodin Quartet"
    INDEX 01 00:00:00
  TRACK 02 AUDIO
    TITLE "Andante cantabile"
    PERFORMER "Borodin Quartet"
    INDEX 01 10:22:32
  TRACK 03 AUDIO
    TITLE "Scherzo:Allegro non tanto e con fuoco"
    PERFORMER "Borodin Quartet"
    INDEX 01 17:48:67
  TRACK 04 AUDIO
    TITLE "Finale:Allegro giosto"
    PERFORMER "Borodin Quartet"
    INDEX 01 21:35:72
  TRACK 05 AUDIO
    TITLE "STRING QUARTET(1865)"
    PERFORMER "Borodin Quartet"
    INDEX 01 30:26:27
  TRACK 06 AUDIO
    TITLE "Allegro con spirito"
    PERFORMER "Borodin Quartet"
    INDEX 01 44:00:05
  TRACK 07 AUDIO
    TITLE "Adagio cantabile e con moto"
    PERFORMER "Borodin Quartet"
    INDEX 01 54:17:42
  TRACK 08 AUDIO
    TITLE "Allegretto moderato"
    PERFORMER "Borodin Quartet"
    INDEX 01 64:54:52
  TRACK 09 AUDIO
    TITLE "Allegro vivace"
    PERFORMER "Borodin Quartet"
    INDEX 01 71:16:69
 

代码
Exact Audio Copy V1.0 beta 3 from 29. August 2011

EAC 抓取日志文件从11. 八月 2012, 9:58

Borodin Quartet / Tchaikovsky-String Quartets(Disc1)

使用驱动器  :SlimtypeDVD A  DS8A5SH   Adapter: 1  ID: 0

读取模式 : 暴发

读取偏移校正:               : 6
读取 Lead-In 和 Lead-Out : 否
用静音填充抓取中丢失偏移的采样       : 是
去除首尾静音块               : 否
在CRC 计算中使用了空样本       : 是
已用接口                  : Win NT 及 2000 本地 Win32 接口

所用输出模式: : 内部 WAV 函数
样本格式    : 44.100 Hz; 16 Bit; 立体声


已抓取 CD 的 TOC

     音轨 |    起始    |    长度    |  起始扇区  |  结束扇区  
    --------------------------------------------
      1 |  0:00.00 | 10:22.32 |      0 |  46681
      2 | 10:22.32 |  7:26.35 |  46682 |  80166
      3 | 17:48.67 |  3:47.05 |  80167 |  97196
      4 | 21:35.72 |  8:50.30 |  97197 | 136976
      5 | 30:26.27 | 13:33.53 | 136977 | 198004
      6 | 44:00.05 | 10:17.37 | 198005 | 244316
      7 | 54:17.42 | 10:37.10 | 244317 | 292101
      8 | 64:54.52 |  6:22.17 | 292102 | 320768
      9 | 71:16.69 |  6:55.00 | 320769 | 351893


范围状态及错误

已选择范围   (扇区 0-351893)

     文件名 E:\音频处理\cd1.wav

     峰值电平 98.8 %
     抓取速度 14.1 X
     复制 CRC C795A0D9
     复制成功

没有错误发生


AccurateRip 摘要

音轨  1  精确地校准抓取  1)  [D457CB95]  (AR v1)
音轨  2  精确地校准抓取  1)  [09DCD329]  (AR v1)
音轨  3  精确地校准抓取  1)  [340D6713]  (AR v1)
音轨  4  精确地校准抓取  1)  [7D84F224]  (AR v1)
音轨  5  精确地校准抓取  1)  [89E8CE81]  (AR v1)
音轨  6  精确地校准抓取  1)  [448BDFF7]  (AR v1)
音轨  7  精确地校准抓取  1)  [9A4D0C2D]  (AR v1)
音轨  8  精确地校准抓取  1)  [24A30526]  (AR v1)
音轨  9  精确地校准抓取  1)  [9BA95F71]  (AR v1)

所有音轨精确校准抓取

状态报告结尾


代码
REM GENRE Streichquartett
REM DATE 1980
REM DISCID 7911B208
REM COMMENT "ExactAudioCopy v1.0b3"
PERFORMER "Tschaikowsky"
TITLE "Streichquartette Nr. 2 & 3 (Borodin Quartet)"
FILE "Borodin.Quartet.Rostropovich.Talalyan.-.[Tchaikovsky.String.Quartets.Sextet.Souvenir.de.Florence].CD2.专辑.(FLAC).flac" WAVE
  TRACK 01 AUDIO
    TITLE "Streichquartett Nr. 2 F-dur op. 22 - Adagio - Moderato assai, quasi andantino"
    PERFORMER "Tschaikowsky"
    INDEX 00 00:00:00
    INDEX 01 00:00:33
  TRACK 02 AUDIO
    TITLE "Streichquartett Nr. 2 F-dur op. 22 - Scherzo: Allegro giusto"
    PERFORMER "Tschaikowsky"
    INDEX 00 12:25:35
    INDEX 01 12:29:00
  TRACK 03 AUDIO
    TITLE "Streichquartett Nr. 2 F-dur op. 22 - Andante ma non tanto"
    PERFORMER "Tschaikowsky"
    INDEX 00 17:52:10
    INDEX 01 17:55:10
  TRACK 04 AUDIO
    TITLE "Streichquartett Nr. 2 F-dur op. 22 - Allegro con moto - Piu mosso"
    PERFORMER "Tschaikowsky"
    INDEX 00 31:07:60
    INDEX 01 31:10:33
  TRACK 05 AUDIO
    TITLE "Streichquartett Nr. 3 es-moll op. 30 - Andante sostenuto - Allegro moderato -..."
    PERFORMER "Tschaikowsky"
    INDEX 00 37:09:10
    INDEX 01 37:17:58
  TRACK 06 AUDIO
    TITLE "Streichquartett Nr. 3 es-moll op. 30 - Allegretto vivo e scherzando"
    PERFORMER "Tschaikowsky"
    INDEX 00 54:18:58
    INDEX 01 54:23:25
  TRACK 07 AUDIO
    TITLE "Streichquartett Nr. 3 es-moll op. 30 - Andante funebre e doloroso, ma con moto"
    PERFORMER "Tschaikowsky"
    INDEX 00 58:04:35
    INDEX 01 58:05:60
  TRACK 08 AUDIO
    TITLE "Streichquartett Nr. 3 es-moll op. 30 - Finale: Allegro risoluto - Vivace"
    PERFORMER "Tschaikowsky"
    INDEX 00 69:50:73
    INDEX 01 69:53:53


代码
Exact Audio Copy V1.0 beta 3 from 29. August 2011

EAC 抓取日志文件从11. 八月 2012, 10:13

Tschaikowsky / Streichquartette Nr. 2 & 3 (Borodin Quartet)

使用驱动器  :SlimtypeDVD A  DS8A5SH   Adapter: 1  ID: 0

读取模式 : 暴发

读取偏移校正:               : 6
读取 Lead-In 和 Lead-Out : 否
用静音填充抓取中丢失偏移的采样       : 是
去除首尾静音块               : 否
在CRC 计算中使用了空样本       : 是
已用接口                  : Win NT 及 2000 本地 Win32 接口

所用输出模式: : 内部 WAV 函数
样本格式    : 44.100 Hz; 16 Bit; 立体声


已抓取 CD 的 TOC

     音轨 |    起始    |    长度    |  起始扇区  |  结束扇区  
    --------------------------------------------
      1 |  0:00.33 | 12:28.42 |     33 |  56174
      2 | 12:29.00 |  5:26.10 |  56175 |  80634
      3 | 17:55.10 | 13:15.23 |  80635 | 140282
      4 | 31:10.33 |  6:07.25 | 140283 | 167832
      5 | 37:17.58 | 17:05.42 | 167833 | 244749
      6 | 54:23.25 |  3:42.35 | 244750 | 261434
      7 | 58:05.60 | 11:47.68 | 261435 | 314527
      8 | 69:53.53 |  5:36.65 | 314528 | 339792


范围状态及错误

已选择范围   (扇区 33-339792)

     文件名 E:\音频处理\cd2.wav

     计时问题 0:30:13

     峰值电平 99.0 %
     抓取速度 6.9 X
     复制 CRC 2CC7F0F4
     复制结束

没有错误发生


AccurateRip 摘要

音轨  1  在数据库中不存在
音轨  2  在数据库中不存在
音轨  3  在数据库中不存在
音轨  4  在数据库中不存在
音轨  5  在数据库中不存在
音轨  6  在数据库中不存在
音轨  7  在数据库中不存在
音轨  8  在数据库中不存在

没有任何音轨在 AccurateRip 数据库中有记录

状态报告结尾



专辑曲目

1. String Quartet No. 1 in D major, Op. 11
2. String quartet, in B flat (in 1 movement)
3. Souvenir de Florence, for string sextet or string orchestra in D major, Op. 70
4. String Quartet No. 2 in F major, Op. 22
5. String Quartet No. 3 in E flat minor, Op. 30

正在读取……

这里是其它用户补充的资源(我也要补充):

暂无补充资源
正在加载,请稍等...

点击查看所有80网友评论

 

(?) [公告]留口水、评论相关规则 | [活动]每日签到 轻松领取电驴经验

    小贴士:
  1. 类似“顶”、“沙发”之类没有营养的文字,对勤劳贡献的楼主来说是令人沮丧的反馈信息。
  2. 提问之前请再仔细看一遍楼主的说明,或许是您遗漏了。
  3. 勿催片。请相信驴友们对分享是富有激情的,如果确有更新版本,您一定能搜索到。
  4. 请勿到处挖坑绊人、招贴广告。既占空间让人厌烦,又没人会搭理,于人于己都无利。
  5. 如果您发现自己的评论不见了,请参考以上4条。